<?xml version="1.0" standalone="no"?>
<!DOCTYPE svg PUBLIC "-//W3C//DTD SVG 1.1//EN" "http://www.w3.org/Graphics/SVG/1.1/DTD/svg11.dtd">
<svg xmlns="http://www.w3.org/2000/svg">
<defs >
<font id="Nunito" horiz-adv-x="566" ><font-face
    font-family="Nunito ExtraLight"
    units-per-em="1000"
    panose-1="0 0 0 0 0 0 0 0 0 0"
    ascent="1011"
    descent="-353"
    alphabetic="0" />
<glyph unicode=" " horiz-adv-x="271" />
<glyph unicode="!" horiz-adv-x="248" d="M121 208Q102 208 92 218T84 253L115 640Q118 677 138 695T193 713Q230 713 247 690T255 625L165 246Q161 228 150 218T121 208ZM98 -5Q64 -5 44 16T23 70Q23 102 43 122T98 143Q133 143 152 123T172 70Q172 37 153 16T98 -5Z" />
<glyph unicode="&quot;" horiz-adv-x="448" d="M152 407Q131 407 120 418T109 457L119 651Q121 678 139 695T187 713Q209 713 225 704T248 678T249 636L200 449Q194 426 181 417T152 407ZM357 407Q336 407 325 418T314 457L324 651Q326 678 344 695T392 713Q414
713 430 704T453 678T454 636L405 449Q399 426 386 417T357 407Z" />
<glyph unicode="#" horiz-adv-x="600" d="M89 -8Q65 -8 58 8T60 51L107 183L138 172H78Q72 172 61 173T42 182T33 208Q33 228 45 240T82 252H162L129 243L210 473L236 461H145Q139 461 129 462T110 472T101 498Q101 518 113 530T150 542H264L230 530L280 672Q288
693 301 703T332 713Q355 713 362 698T360 655L320 542H447L493 672Q501 693 514 703T546 713Q569 713 576 698T574 655L530 530L499 542H558Q565 542 575 541T594 532T603 506Q603 486 591 474T554 461H475L509 473L428 243L401 252H491Q498 252 508 251T527 242T536
216Q536 197 524 185T487 172H373L407 183L353 33Q346 12 333 2T301 -8Q278 -8 271 8T273 51L316 172H190L141 33Q134 12 121 2T89 -8ZM218 252H345L419 461H292L218 252Z" />
<glyph unicode="$" horiz-adv-x="600" d="M257 -123Q231 -123 219 -109T210 -67L223 15L238 -5Q186 -2 136 13T47 51Q28 62 21 79T17 113T32 143T60 158T99 149Q138 127 186 115T290 102Q332 102 364 113T414 145T432 196Q432 220 422 237T390 266T330 288L232
313Q160 332 118 376T76 495Q76 564 112 611T210 684T346 711L331 697L345 784Q348 803 362 814T398 825Q419 825 433 813T443 773L431 696L422 705Q460 698 498 683T570 644Q584 634 588 619T590 588T575 561T548 549T509 560Q473 582 434 592T351 603Q283 603
243 578T203 507Q203 470 223 449T286 417L384 392Q472 370 515 324T559 209Q559 142 524 96T431 24T303 -5L323 15L308 -82Q305 -101 291 -112T257 -123Z" />
<glyph unicode="%" horiz-adv-x="945" d="M293 2Q281 -14 267 -19T239 -20T216 -5T207 21T218 53L685 699Q696 715 711 719T739 721T762 707T772 681T761 649L293 2ZM240 281Q164 281 122 325T80 446Q80 520 103 580T172 676T282 712Q359 712 400 667T442 546Q442
471 419 411T350 316T240 281ZM240 361Q273 361 295 387T328 456T341 545Q343 592 327 611T282 631Q249 631 227 605T194 537T181 447Q180 401 196 381T240 361ZM697 -10Q620 -10 579 35T537 155Q537 229 560 289T629 385T738 421Q815 421 856 376T898 255Q898
180 875 120T807 25T697 -10ZM696 71Q730 71 752 97T785 165T798 255Q799 302 783 321T739 341Q706 341 684 315T650 246T637 157Q636 111 652 91T696 71Z" />
<glyph unicode="&amp;" horiz-adv-x="726" d="M265 -10Q197 -10 148 10T72 68T45 155Q45 194 58 228T96 291T153 344T223 389L260 409L238 382Q207 418 193 453T179 523Q179 579 207 622T283 690T395 715Q467 715 511 677T556 576Q556 527 531 489T464 420T374
363L376 393L518 212H494Q514 240 527 264T550 317T573 386Q580 409 593 420T630 431Q657 431 670 417T676 376Q661 322 645 283T608 210T558 139L559 170L638 75Q655 55 654 36T637 4T596 -9Q583 -9 569 -6T545 11L482 91L507 90Q458 43 397 17T265 -10ZM284 89Q334
89 374 107T449 163L443 131L272 344L320 338L289 321Q259 304 232 284T187 237T170 173Q170 133 199 111T284 89ZM388 626Q345 626 320 601T295 533Q295 517 299 503T314 471T343 431L318 435Q363 456 392 476T436 520T451 572Q451 599 435 612T388 626Z" />
<glyph unicode="&apos;" horiz-adv-x="243" d="M152 407Q131 407 120 418T109 457L119 651Q121 678 139 695T187 713Q209 713 225 704T248 678T249 636L200 449Q194 426 181 417T152 407Z" />
<glyph unicode="(" horiz-adv-x="358" d="M146 -148Q121 -72 109 -1T96 139Q96 243 120 342T185 529T279 687Q294 707 314 710T351 705T374 678T369 636Q324 551 293 466T246 290T230 98Q230 64 232 30T239 -40T249 -114Q254 -143 242 -160T210 -183T172 -179T146 -148Z" />
<glyph unicode=")" horiz-adv-x="358" d="M85 -158Q70 -177 50 -181T13 -177T-10 -152T-5 -110Q40 -25 71 60T118 237T134 428Q134 463 132 497T126 567T115 640Q111 669 123 686T154 709T192 706T218 674Q244 598 256 527T268 387Q268 284 245 185T180 -1T85 -158Z" />
<glyph unicode="*" horiz-adv-x="453" d="M171 358Q153 369 151 386T160 422L224 520L242 494L125 488Q102 487 88 497T74 529Q74 549 88 560T125 569L242 562L225 536L161 635Q148 655 151 672T172 699Q189 710 206 702T233 673L279 577H264L310 673Q320 694
337 702T372 699Q390 688 392 671T382 634L318 537L301 562L418 569Q441 571 455 560T469 529Q469 508 455 498T418 488L301 494L318 520L382 422Q394 403 392 387T372 359Q353 348 337 355T310 384L264 481H279L232 384Q222 363 206 356T171 358Z" />
<glyph unicode="+" horiz-adv-x="600" d="M269 32Q247 32 236 46T229 85L254 243H101Q79 243 67 252T55 279Q55 303 68 317T107 331H268L293 492Q297 514 309 525T344 536Q366 536 376 523T383 484L359 331H512Q535 331 547 322T559 295Q559 271 546 257T507 243H345L319
77Q315 55 304 44T269 32Z" />
<glyph unicode="," horiz-adv-x="248" d="M89 -109Q74 -123 59 -123T35 -115T25 -92T40 -64Q66 -39 77 -18T93 29L101 -5Q66 -5 45 15T23 70Q23 102 43 122T97 143Q132 143 150 121T168 63Q168 30 160 1T134 -56T89 -109Z" />
<glyph unicode="-" horiz-adv-x="434" d="M119 218Q92 218 78 228T64 258Q64 284 78 300T118 317H324Q351 317 365 307T379 276Q379 251 365 235T324 218H119Z" />
<glyph unicode="." horiz-adv-x="248" d="M98 -5Q64 -5 44 16T23 70Q23 102 43 122T98 143Q133 143 152 123T172 70Q172 37 153 16T98 -5Z" />
<glyph unicode="/" horiz-adv-x="313" d="M42 -33Q33 -51 20 -57T-8 -62T-34 -50T-48 -25T-43 8L300 722Q308 739 322 746T350 751T376 739T391 714T386 681L42 -33Z" />
<glyph unicode="0" horiz-adv-x="600" d="M288 -10Q175 -10 116 58T56 256Q56 398 91 500T192 659T347 715Q460 715 519 647T579 451Q579 309 544 206T443 46T288 -10ZM294 95Q365 95 409 189T455 470Q456 541 428 575T341 610Q271 610 226 516T180 236Q180 165
208 130T294 95Z" />
<glyph unicode="1" horiz-adv-x="600" d="M127 0Q100 0 85 11T70 47Q70 73 87 89T134 106H246L324 597L384 592L236 507Q215 495 198 497T169 511T154 539T157 571T185 599L342 690Q363 702 380 707T414 713Q441 713 453 696T460 650L374 106H466Q493 106 508
95T523 60Q523 34 506 17T459 0H127Z" />
<glyph unicode="2" horiz-adv-x="600" d="M109 0Q82 0 65 13T48 51Q48 71 58 86T90 123L320 336Q373 385 404 428T436 521Q436 562 408 584T330 607Q299 607 264 597T190 563Q171 552 155 554T129 567T114 593T115 625T138 652Q184 681 240 698T355 715Q418 715
465 693T537 631T563 541Q563 483 542 436T483 347T399 263L186 72L185 106H469Q497 106 511 95T526 62Q526 34 510 17T462 0H109Z" />
<glyph unicode="3" horiz-adv-x="600" d="M276 -10Q225 -10 169 1T62 44Q43 55 38 71T36 104T51 133T78 148T111 140Q152 115 193 107T276 98Q314 98 343 111T390 151T408 213Q408 255 380 279T295 303H242Q215 303 200 315T185 350Q185 377 202 393T249 409H303Q342
409 373 422T423 460T441 520Q441 561 412 584T334 607Q299 607 261 598T184 565Q165 554 149 555T121 568T107 594T110 626T136 655Q185 687 242 701T351 715Q422 715 469 691T541 626T565 539Q566 491 545 453T486 390T399 355V367Q464 354 498 310T532 205Q532
146 501 97T412 19T276 -10Z" />
<glyph unicode="4" horiz-adv-x="600" d="M375 -8Q344 -8 330 9T320 58L332 134H96Q62 134 46 149T29 188Q29 208 39 225T67 262L414 671Q431 691 447 699T488 708Q515 708 529 690T538 637L475 240H526Q551 240 563 229T576 197Q576 169 562 152T513 134H460L447
53Q443 23 425 8T375 -8ZM348 240L398 552H424L133 206L137 240H348Z" />
<glyph unicode="5" horiz-adv-x="600" d="M282 -10Q235 -10 182 2T81 46Q62 59 57 75T55 108T70 135T97 149T130 141Q169 116 204 107T282 98Q325 98 359 115T412 164T432 235Q432 285 401 314T319 343Q286 343 257 333T198 296Q185 285 171 279T140 272Q117 272
104 285T95 328L147 651Q152 678 168 691T212 705H532Q559 705 574 694T589 660Q589 632 572 616T525 599H264L228 375H195Q227 410 272 429T363 448Q420 448 463 424T531 354T556 247Q556 168 519 111T419 22T282 -10Z" />
<glyph unicode="6" horiz-adv-x="600" d="M310 -10Q233 -10 178 22T94 115T64 258Q64 361 87 445T153 589T260 682T403 715Q450 715 496 700T584 653Q601 640 605 624T604 592T586 566T558 554T525 565Q497 586 464 596T396 607Q336 607 292 575T221 481T186 332L183
298H172Q179 346 208 380T280 433T367 452Q423 452 465 425T532 353T556 251Q556 177 525 118T438 24T310 -10ZM305 92Q345 92 374 111T420 164T437 240Q437 273 423 297T384 336T326 350Q287 350 257 331T211 278T194 202Q194 170 208 145T247 106T305 92Z" />
<glyph unicode="7" horiz-adv-x="600" d="M143 -8Q119 -8 104 4T88 37T103 81L485 642L484 598H170Q142 598 126 610T110 645Q110 674 126 689T173 705H550Q586 705 600 692T615 657Q615 636 606 618T580 575L216 35Q201 13 184 3T143 -8Z" />
<glyph unicode="8" horiz-adv-x="600" d="M272 -10Q198 -10 144 12T59 74T29 170Q29 224 53 268T121 340T217 370L214 350Q159 364 128 405T97 507Q97 574 132 620T227 690T363 714Q431 714 481 693T560 634T588 543Q588 495 566 454T506 385T420 351L423 371Q482
361 519 319T556 209Q556 138 519 89T418 15T272 -10ZM278 90Q351 90 394 122T437 215Q437 261 402 284T308 307Q235 307 192 276T148 184Q148 138 183 114T278 90ZM327 407Q370 407 401 422T451 463T469 526Q469 569 440 591T358 614Q291 614 254 583T216 496Q216
453 245 430T327 407Z" />
<glyph unicode="9" horiz-adv-x="600" d="M239 -10Q193 -10 144 5T50 52Q33 65 29 81T30 112T47 138T75 150T109 140Q139 119 174 109T245 98Q301 98 343 130T413 224T448 372L451 407H463Q456 359 426 325T354 272T267 253Q211 253 169 280T102 353T78 454Q78
529 109 588T196 681T324 715Q401 715 456 683T540 591T570 448Q570 348 549 264T485 119T381 24T239 -10ZM308 355Q348 355 377 374T423 427T440 503Q440 536 426 561T387 600T329 614Q290 614 261 595T215 542T198 465Q198 433 212 408T251 369T308 355Z" />
<glyph unicode=":" horiz-adv-x="248" d="M98 -5Q64 -5 44 16T23 70Q23 102 43 122T98 143Q133 143 152 123T172 70Q172 37 153 16T98 -5ZM154 346Q120 346 100 367T79 420Q79 453 99 473T154 494Q189 494 208 474T228 420Q228 388 209 367T154 346Z" />
<glyph unicode=";" horiz-adv-x="248" d="M89 -109Q74 -123 59 -123T35 -115T25 -92T40 -64Q66 -39 77 -18T93 29L101 -5Q66 -5 45 15T23 70Q23 102 43 122T97 143Q132 143 150 121T168 63Q168 30 160 1T134 -56T89 -109ZM154 346Q120 346 100 367T79 420Q79 453
99 473T154 494Q189 494 208 474T228 420Q228 388 209 367T154 346Z" />
<glyph unicode="&lt;" horiz-adv-x="600" d="M464 54L109 215Q54 239 54 278Q54 305 70 323T113 352L527 517Q545 524 558 520T580 505T589 479T583 453T558 433L95 251L105 312L500 135Q517 128 523 115T528 89T518 64T495 50T464 54Z" />
<glyph unicode="=" horiz-adv-x="600" d="M117 343Q94 343 82 352T70 379Q70 403 83 417T122 431H528Q551 431 563 422T575 395Q575 371 562 357T523 343H117ZM85 144Q63 144 51 153T39 180Q39 203 52 217T91 231H497Q520 231 531 222T543 195Q543 172 530 158T491
144H85Z" />
<glyph unicode="&gt;" horiz-adv-x="600" d="M87 59Q69 52 56 56T34 71T25 95T31 121T56 141L518 323L508 261L113 439Q96 447 90 460T84 487T94 512T116 526T147 522L505 359Q559 334 559 296Q559 269 543 252T501 223L87 59Z" />
<glyph unicode="?" horiz-adv-x="459" d="M222 204Q200 204 190 217T184 254Q189 285 198 311T228 363T285 421Q311 444 328 462T355 498T364 540Q364 569 345 588T282 607Q245 607 213 597T147 567Q126 555 109 556T82 569T69 595T73 627T99 656Q143 685 199
700T307 715Q365 715 406 694T469 638T491 560Q491 518 474 484T430 422T369 371Q334 347 313 325T281 281T262 236Q258 221 249 213T222 204ZM194 -5Q160 -5 140 16T119 70Q119 102 139 122T194 143Q229 143 248 123T268 70Q268 37 249 16T194 -5Z" />
<glyph unicode="@" horiz-adv-x="950" d="M496 -165Q399 -165 320 -135T184 -47T95 90T64 268Q64 369 96 451T187 592T329 683T513 715Q631 715 719 669T857 539T906 342Q906 255 882 192T814 94T711 59Q651 59 617 92T582 186L612 196Q587 128 542 94T441 59Q362
59 318 109T273 246Q273 319 301 376T377 466T487 499Q541 499 575 473T621 395H603L613 449Q622 492 665 492Q688 492 699 479T705 441L672 248Q669 232 668 219T666 194Q666 163 679 148T718 133Q750 133 775 159T814 232T828 342Q828 435 790 501T681 602T512
638Q403 638 322 593T196 464T151 268Q151 157 193 77T313 -45T496 -88Q562 -88 616 -72T713 -26Q733 -14 747 -18T769 -35T774 -64T752 -93Q703 -128 638 -146T496 -165ZM460 138Q498 138 527 161T573 226T590 322Q590 370 569 394T504 419Q466 419 436 397T389
337T372 247Q372 194 395 166T460 138Z" />
<glyph unicode="A" horiz-adv-x="744" d="M52 -8Q29 -8 14 2T-4 30T5 69L372 669Q386 692 403 702T445 713Q471 713 488 700T512 661L684 72Q692 45 687 28T668 1T634 -8Q606 -8 592 6T569 49L532 190L572 163H158L208 187L116 30Q105 11 90 2T52 -8ZM430 566L240
242L218 265H545L518 240L432 566H430Z" />
<glyph unicode="B" horiz-adv-x="688" d="M112 0Q78 0 62 19T50 73L140 643Q145 674 163 689T213 705H440Q518 705 567 684T639 625T662 538Q662 462 614 413T488 352V368Q554 356 591 314T628 210Q628 107 560 54T372 0H112ZM176 97H366Q435 97 469 128T504 217Q504
263 474 286T385 309H210L176 97ZM226 406H397Q464 406 501 436T538 523Q538 564 510 586T420 608H258L226 406Z" />
<glyph unicode="C" horiz-adv-x="680" d="M393 -10Q299 -10 227 25T113 132T71 310Q71 396 96 469T170 598T290 684T451 715Q509 715 562 700T655 656Q673 643 677 626T677 591T661 562T633 547T600 555Q561 581 524 591T447 601Q370 601 317 564T235 461T207
314Q207 240 229 194T296 126T405 104Q442 104 476 113T546 143Q566 155 582 153T610 138T624 110T622 77T597 48Q553 19 498 5T393 -10Z" />
<glyph unicode="D" horiz-adv-x="762" d="M112 0Q78 0 61 19T50 73L140 643Q145 674 163 689T213 705H376Q544 705 635 626T727 404Q727 319 702 246T627 117T501 31T323 0H112ZM183 106H325Q395 106 446 128T529 191T577 285T593 402Q593 498 539 548T376 599H261L183
106Z" />
<glyph unicode="E" horiz-adv-x="597" d="M113 0Q77 0 61 19T50 73L140 643Q145 674 163 689T213 705H566Q592 705 606 695T620 664Q620 635 604 619T560 603H257L226 409H498Q524 409 537 399T551 368Q551 339 535 323T491 307H210L177 102H470Q496 102 510 92T524
61Q524 32 508 16T464 0H113Z" />
<glyph unicode="F" horiz-adv-x="562" d="M107 -8Q74 -8 59 11T49 65L140 643Q145 674 163 689T213 705H555Q581 705 595 695T609 664Q609 636 594 620T549 603H263L231 404H486Q512 404 526 394T540 363Q540 335 525 319T480 302H215L176 55Q166 -8 107 -8Z" />
<glyph unicode="G" horiz-adv-x="736" d="M398 -10Q300 -10 226 26T111 132T70 303Q70 393 96 468T172 598T295 684T460 715Q520 715 573 701T666 661Q686 648 692 630T694 595T677 565T648 549T611 559Q577 582 537 592T453 603Q374 603 319 565T234 460T204
308Q204 202 259 151T416 100Q456 100 493 107T565 127L532 73L567 286H458Q433 286 419 297T404 327Q404 353 420 367T464 381H627Q656 381 670 365T679 320L641 80Q637 57 626 43T593 20Q552 6 500 -2T398 -10Z" />
<glyph unicode="H" horiz-adv-x="773" d="M103 -8Q71 -8 57 12T49 68L141 649Q146 681 164 697T214 713Q246 713 259 693T267 637L231 411H594L632 649Q637 681 654 697T704 713Q736 713 750 694T758 637L666 57Q661 25 644 9T594 -8Q561 -8 548 12T540 68L577
304H214L175 57Q170 25 153 9T103 -8Z" />
<glyph unicode="I" horiz-adv-x="282" d="M104 -8Q71 -8 57 12T49 68L141 649Q146 681 164 697T214 713Q246 713 259 694T267 637L175 57Q170 25 153 9T104 -8Z" />
<glyph unicode="J" horiz-adv-x="354" d="M14 -7Q-14 -8 -30 5T-45 44Q-44 70 -32 83T5 98L36 100Q83 103 109 129T143 207L214 654Q219 684 236 698T283 713Q315 713 330 695T340 643L269 196Q259 134 234 91T163 24T44 -5L14 -7Z" />
<glyph unicode="K" horiz-adv-x="664" d="M103 -8Q72 -8 57 11T48 67L141 650Q146 682 164 697T213 713Q244 713 258 694T267 639L228 393H230L560 683Q577 698 590 705T623 713Q648 713 662 698T677 662T656 624L326 334L322 393L588 78Q604 60 602 40T585 6T545
-8Q522 -8 509 2T475 34L220 329H218L175 54Q170 23 153 8T103 -8Z" />
<glyph unicode="L" horiz-adv-x="562" d="M109 0Q75 0 60 18T49 71L142 654Q147 684 164 698T211 713Q243 713 258 695T268 643L184 109H463Q491 109 506 98T521 65Q521 34 504 17T456 0H109Z" />
<glyph unicode="M" horiz-adv-x="869" d="M102 -5Q71 -5 59 12T50 59L145 658Q150 686 165 699T208 713Q232 713 245 703T269 666L439 214H410L732 676Q746 696 762 704T802 713Q831 713 844 696T853 649L758 50Q754 23 739 9T695 -5Q667 -5 653 12T643 59L716
519H739L466 128Q455 112 444 106T415 99Q396 99 385 108T365 136L216 515H238L164 50Q160 23 145 9T102 -5Z" />
<glyph unicode="N" horiz-adv-x="747" d="M100 -8Q72 -8 58 10T48 63L143 659Q148 687 163 700T202 713Q227 713 239 704T265 673L564 166H539L616 654Q621 684 638 698T685 713Q713 713 725 695T733 643L639 48Q635 20 621 6T584 -8Q559 -8 544 2T516 34L217
539H242L165 51Q161 21 146 7T100 -8Z" />
<glyph unicode="O" horiz-adv-x="785" d="M381 -10Q287 -10 217 26T109 131T70 299Q70 389 95 465T169 597T285 684T439 715Q534 715 603 679T711 574T750 407Q750 316 725 240T651 108T535 21T381 -10ZM383 100Q458 100 510 139T589 248T616 405Q616 506 568
555T436 605Q362 605 310 566T231 459T204 301Q204 199 252 150T383 100Z" />
<glyph unicode="P" horiz-adv-x="652" d="M103 -8Q72 -8 58 12T49 67L140 642Q145 674 164 689T214 705H424Q541 705 602 655T663 509Q663 394 592 329T386 264H208L175 56Q170 24 153 8T103 -8ZM224 365H392Q464 365 501 399T539 499Q539 553 507 578T409 604H262L224
365Z" />
<glyph unicode="Q" horiz-adv-x="785" d="M623 -118Q635 -142 631 -161T612 -191T579 -204T543 -197T514 -164L468 -63Q455 -35 432 -23T367 -10L471 29Q514 28 542 12T589 -45L623 -118ZM381 -10Q287 -10 217 26T109 131T70 299Q70 389 95 465T169 597T285 684T439
715Q534 715 603 679T711 574T750 407Q750 316 725 240T651 108T535 21T381 -10ZM383 100Q458 100 510 139T589 248T616 405Q616 506 568 555T436 605Q362 605 310 566T231 459T204 301Q204 199 252 150T383 100Z" />
<glyph unicode="R" horiz-adv-x="686" d="M102 -8Q72 -8 58 12T49 68L140 641Q145 673 164 689T215 705H425Q542 705 602 653T663 510Q663 433 629 383T534 309T396 285V300H422Q469 300 499 274T547 200L595 75Q605 49 603 31T585 2T543 -8Q517 -8 502 5T475
48L411 216Q398 252 376 267T314 282H211L176 56Q171 24 153 8T102 -8ZM226 377H396Q464 377 501 408T539 500Q539 552 507 578T406 604H262L226 377Z" />
<glyph unicode="S" horiz-adv-x="631" d="M300 -10Q258 -10 216 -4T135 15T60 49Q41 60 35 76T31 110T45 139T73 155T111 146Q158 120 209 109T312 98Q382 98 422 125T463 196Q463 229 439 251T357 287L248 313Q175 330 132 374T89 493Q89 545 111 586T172 656T261
700T369 715Q422 715 482 701T591 653Q608 642 614 626T617 593T603 565T574 553T532 565Q497 586 453 596T367 607Q323 607 289 594T235 558T216 504Q216 466 238 446T303 415L412 389Q501 368 545 322T590 211Q590 156 567 115T504 46T411 4T300 -10Z" />
<glyph unicode="T" horiz-adv-x="621" d="M273 -8Q242 -8 228 12T219 67L303 598H118Q91 598 76 610T61 642Q61 672 78 688T125 705H633Q660 705 675 694T690 662Q690 632 673 615T626 598H431L345 56Q340 25 323 9T273 -8Z" />
<glyph unicode="U" horiz-adv-x="738" d="M341 -10Q274 -10 221 9T132 68T83 167T82 307L137 653Q142 684 159 698T207 713Q239 713 253 695T263 642L209 298Q194 201 229 151T350 100Q432 100 479 142T542 277L602 653Q607 684 624 698T672 713Q703 713 717 695T727
642L670 279Q655 185 616 121T509 23T341 -10Z" />
<glyph unicode="V" horiz-adv-x="713" d="M320 -8Q292 -8 275 6T250 49L85 626Q79 650 84 667T105 695T141 705Q165 705 181 693T205 649L350 114H307L629 660Q643 684 659 694T700 705Q726 705 740 693T757 662T746 622L394 38Q380 14 363 3T320 -8Z" />
<glyph unicode="W" horiz-adv-x="1113" d="M284 -8Q258 -8 243 7T222 52L108 636Q101 671 117 692T167 713Q192 713 207 699T228 654L323 127H283L557 665Q570 690 586 701T627 713Q650 713 663 699T683 652L779 127H743L1014 666Q1026 690 1041 701T1081 713Q1118
713 1131 689T1126 630L824 40Q811 15 794 4T749 -8Q723 -8 708 7T687 52L593 541H616L359 40Q346 15 329 4T284 -8Z" />
<glyph unicode="X" horiz-adv-x="672" d="M67 -8Q42 -8 28 6T13 42T31 85L298 386V332L126 623Q113 646 115 666T134 700T175 713Q198 713 211 703T240 665L377 424H347L559 673Q578 695 593 704T631 713Q656 713 671 699T687 664T670 622L410 329V388L591 83Q605
61 602 40T582 6T541 -8Q518 -8 505 2T475 40L328 294H363L139 32Q120 10 105 1T67 -8Z" />
<glyph unicode="Y" horiz-adv-x="618" d="M269 -8Q238 -8 225 12T217 67L264 363L278 286L93 622Q80 646 82 666T100 700T142 713Q165 713 179 703T209 665L343 417H315L536 673Q556 696 571 704T608 713Q633 713 647 699T662 664T644 622L352 286L392 363L343
56Q333 -8 269 -8Z" />
<glyph unicode="Z" horiz-adv-x="605" d="M69 0Q48 0 35 10T17 38T20 78T48 123L503 639L505 598H159Q132 598 118 609T103 642Q103 673 120 689T167 705H576Q601 705 616 695T635 667T632 628T604 584L148 67L145 107H506Q533 107 548 96T563 64Q563 33 546 17T499
0H69Z" />
<glyph unicode="[" horiz-adv-x="354" d="M113 -180Q82 -180 64 -159T51 -107L172 657Q175 678 190 691T228 705H360Q388 705 402 694T416 662Q416 634 401 623T360 611H289L179 -86H248Q272 -86 281 -96T291 -124Q291 -149 277 -164T235 -180H113Z" />
<glyph unicode="\" horiz-adv-x="313" d="M184 -25L65 699Q62 718 69 731T90 750T119 756T145 744T160 714L280 -11Q283 -30 276 -43T255 -63T226 -68T199 -56T184 -25Z" />
<glyph unicode="]" horiz-adv-x="354" d="M0 -180Q-28 -180 -42 -169T-56 -137Q-56 -109 -41 -98T0 -86H71L181 611H112Q88 611 79 622T69 649Q69 675 83 690T125 705H247Q278 705 296 684T309 632L188 -132Q185 -153 170 -166T132 -180H0Z" />
<glyph unicode="^" horiz-adv-x="600" d="M93 132Q65 132 56 150T61 193L295 596Q308 618 323 627T362 636Q406 636 419 586L524 193Q532 165 520 149T483 132Q459 132 451 145T437 174L328 590H389L145 166Q137 152 126 142T93 132Z" />
<glyph unicode="_" horiz-adv-x="500" d="M10 -75Q-12 -75 -22 -67T-33 -43Q-33 -20 -20 -10T13 0H401Q423 0 433 -9T443 -32Q443 -54 430 -64T397 -75H10Z" />
<glyph unicode="`" horiz-adv-x="401" d="M280 564L189 695Q175 715 177 731T190 758T218 771T250 766T278 736L348 599Q357 582 352 569T335 548T307 544T280 564Z" />
<glyph unicode="a" horiz-adv-x="547" d="M193 -10Q148 -10 111 10T52 65T29 141Q29 193 58 225T148 274T304 290H384L373 218H310Q251 218 216 212T166 191T151 149Q151 114 174 95T232 76Q264 76 290 89T334 128T357 189L376 308Q384 355 362 380T283 405Q250
405 219 399T155 377Q136 369 121 372T97 385T86 410T94 439T126 463Q168 482 213 490T299 499Q378 499 423 470T484 391T490 277L455 54Q451 23 434 8T387 -8Q360 -8 347 9T338 61L348 124L355 104Q341 65 316 40T259 2T193 -10Z" />
<glyph unicode="b" horiz-adv-x="600" d="M318 -10Q262 -10 219 17T158 97L167 122L157 55Q153 24 137 8T89 -8Q60 -8 46 11T36 65L129 650Q134 681 152 697T201 713Q230 713 244 694T253 640L214 397H204Q231 445 276 472T379 499Q435 499 476 474T541 401T564
288Q564 205 535 138T450 30T318 -10ZM295 85Q341 85 372 111T421 182T438 282Q438 341 410 372T331 404Q286 404 254 378T205 308T188 207Q188 148 216 117T295 85Z" />
<glyph unicode="c" horiz-adv-x="472" d="M270 -10Q192 -10 141 18T63 96T37 213Q37 267 53 318T104 410T190 475T314 499Q350 499 385 491T447 468Q467 457 474 443T480 413T468 387T445 373T415 378Q392 391 370 396T322 402Q279 402 249 386T201 343T174 282T165
214Q165 157 193 122T288 87Q307 87 328 92T374 110Q388 117 401 114T423 101T434 77T431 49T407 24Q381 8 342 -1T270 -10Z" />
<glyph unicode="d" horiz-adv-x="600" d="M220 -10Q165 -10 124 16T59 89T36 201Q36 285 65 352T150 459T282 499Q338 499 381 472T441 392L434 393L475 654Q480 685 498 699T547 713Q576 713 589 695T598 642L505 56Q500 25 482 9T433 -8Q404 -8 392 12T385 67L394
122L395 92Q368 45 323 18T220 -10ZM269 85Q315 85 346 111T395 182T412 282Q412 341 384 372T305 404Q260 404 228 378T179 308T162 207Q162 148 190 117T269 85Z" />
<glyph unicode="e" horiz-adv-x="542" d="M280 -10Q206 -10 152 17T67 95T37 212Q37 294 71 358T167 461T307 499Q368 499 409 478T474 422T506 341T509 249Q507 228 498 222T473 216H137L147 288H427L410 273Q416 313 407 344T374 395T306 414Q262 414 232 394T185
343T162 275L157 244Q145 171 181 128T291 85Q321 85 353 91T411 113Q430 124 444 123T467 112T478 89T474 61T451 35Q416 12 368 1T280 -10Z" />
<glyph unicode="f" horiz-adv-x="364" d="M121 -8Q92 -8 79 11T70 65L123 395H81Q57 395 45 405T32 433Q32 459 47 474T89 489H151L135 476L141 513Q155 599 209 649T367 706L399 708Q419 709 430 701T444 679T445 651T432 627T407 616L380 614Q328 610 301 586T266
515L260 479L251 489H341Q365 489 377 480T390 452Q390 425 375 410T333 395H248L194 54Q183 -8 121 -8Z" />
<glyph unicode="g" horiz-adv-x="604" d="M256 -190Q196 -190 143 -177T49 -140Q32 -130 26 -116T23 -87T36 -63T61 -50T94 -57Q126 -74 162 -84T238 -95Q298 -95 335 -68T382 19L398 114L406 113Q382 64 336 38T233 12Q174 12 130 36T62 105T37 213Q37 270 54
322T104 413T183 476T286 499Q344 499 387 472T448 392L436 364L447 437Q452 468 470 482T518 497Q547 497 559 478T567 424L504 26Q488 -79 426 -134T256 -190ZM272 107Q319 107 351 132T401 200T418 292Q418 344 390 374T308 404Q262 404 230 379T180 311T163
220Q163 167 191 137T272 107Z" />
<glyph unicode="h" horiz-adv-x="585" d="M88 -8Q59 -8 46 12T37 67L129 650Q134 681 152 697T201 713Q230 713 244 695T253 641L213 390H202Q227 443 273 471T383 499Q437 499 473 477T525 410T530 293L493 55Q489 24 471 8T421 -8Q392 -8 378 11T369 65L405
291Q414 346 397 373T333 401Q274 401 239 364T193 263L160 55Q151 -8 88 -8Z" />
<glyph unicode="i" horiz-adv-x="255" d="M87 -8Q58 -8 45 11T36 65L95 435Q100 466 118 481T167 497Q196 497 209 478T218 424L159 54Q154 23 137 8T87 -8ZM183 589Q149 589 133 605T119 652Q123 686 145 703T204 721Q238 721 255 705T268 658Q264 624 243 607T183 589Z" />
<glyph unicode="j" horiz-adv-x="259" d="M-64 -191Q-84 -192 -96 -183T-112 -161T-113 -133T-99 -109T-70 -98Q-29 -96 -4 -75T29 -7L99 435Q104 466 121 481T170 497Q199 497 213 478T222 424L156 7Q146 -60 121 -102T52 -165T-64 -191ZM185 589Q151 589 135
605T121 652Q125 686 147 703T206 721Q240 721 257 705T270 658Q266 624 245 607T185 589Z" />
<glyph unicode="k" horiz-adv-x="536" d="M88 -8Q59 -8 46 11T37 64L130 653Q135 684 153 698T202 713Q231 713 244 694T253 639L196 281H198L393 460Q413 479 428 488T466 497Q491 497 502 483T512 449T490 410L294 226V280L453 80Q469 60 468 40T452 6T414 -8Q388
-8 374 3T339 39L189 223H187L160 52Q151 -8 88 -8Z" />
<glyph unicode="l" horiz-adv-x="319" d="M197 -10Q114 -10 77 37T54 176L130 651Q135 682 153 697T202 713Q231 713 244 694T253 640L179 177Q172 133 186 113T234 92Q245 92 252 93T265 95Q275 95 281 88T287 61Q287 32 275 17T246 -4Q237 -7 223 -8T197 -10Z" />
<glyph unicode="m" horiz-adv-x="877" d="M89 -8Q60 -8 47 10T38 63L98 437Q103 467 120 482T167 497Q196 497 209 479T218 427L208 362L201 387Q229 444 274 471T372 499Q428 499 464 470T512 382L499 388Q525 442 571 470T678 499Q730 499 765 477T815 409T819
292L781 52Q777 23 760 8T712 -8Q681 -8 667 10T658 63L694 294Q702 347 686 374T629 401Q580 401 548 365T505 263L472 52Q468 23 450 8T401 -8Q371 -8 357 10T348 63L385 294Q393 347 377 374T320 401Q271 401 239 365T195 263L162 52Q153 -8 89 -8Z" />
<glyph unicode="n" horiz-adv-x="585" d="M88 -7Q59 -7 46 12T37 66L95 435Q100 466 118 481T167 497Q195 497 208 480T216 429L206 365L202 390Q227 443 273 471T383 499Q437 499 473 477T525 410T530 293L493 55Q489 24 471 9T421 -7Q392 -7 378 12T369 66L405
291Q414 346 397 373T333 401Q274 401 239 364T193 263L160 55Q151 -7 88 -7Z" />
<glyph unicode="o" horiz-adv-x="576" d="M267 -10Q195 -10 144 17T65 94T37 211Q37 277 58 330T116 421T203 479T309 499Q381 499 432 472T511 396T539 278Q539 212 518 159T460 68T373 10T267 -10ZM270 85Q316 85 347 111T396 182T413 282Q413 341 385 372T306
404Q261 404 229 378T180 308T163 207Q163 148 191 117T270 85Z" />
<glyph unicode="p" horiz-adv-x="600" d="M60 -188Q31 -188 17 -169T8 -116L95 433Q100 465 118 481T167 497Q196 497 208 478T216 424L207 368L205 398Q233 447 277 473T379 499Q435 499 476 474T541 401T564 288Q564 205 535 138T450 30T318 -10Q262 -10 219
17T158 97H167L131 -129Q126 -160 109 -174T60 -188ZM295 85Q341 85 372 111T421 182T438 282Q438 341 410 372T331 404Q286 404 254 378T205 308T188 207Q188 148 216 117T295 85Z" />
<glyph unicode="q" horiz-adv-x="600" d="M404 -188Q375 -188 362 -169T353 -116L386 92H395Q368 45 323 18T221 -10Q165 -10 124 16T59 89T36 201Q36 285 65 352T151 459T284 499Q339 499 381 472T441 392L433 367L444 436Q449 467 465 482T512 497Q541 497 555
478T564 424L477 -124Q472 -156 454 -172T404 -188ZM269 85Q315 85 346 111T395 182T412 282Q412 341 384 372T305 404Q260 404 228 378T179 308T162 207Q162 148 190 117T269 85Z" />
<glyph unicode="r" horiz-adv-x="392" d="M88 -8Q58 -8 45 10T36 63L95 437Q100 467 118 482T165 497Q194 497 207 479T216 427L207 371H197Q217 430 263 462T372 499Q400 501 409 491T419 458Q419 425 404 410T357 391L328 388Q261 381 232 348T193 254L161 52Q157
22 139 7T88 -8Z" />
<glyph unicode="s" horiz-adv-x="488" d="M226 -10Q179 -10 135 -1T57 25Q38 34 31 48T24 77T34 102T57 116T90 110Q122 94 157 86T226 78Q273 78 298 95T323 142Q323 162 309 175T268 193L176 212Q121 223 91 255T60 337Q60 382 85 418T160 477T280 499Q316 499
357 490T429 462Q446 452 453 438T458 410T446 387T422 375T389 383Q364 397 334 404T274 411Q225 411 199 393T173 344Q173 326 184 313T221 295L313 276Q373 263 404 232T436 151Q436 74 379 32T226 -10Z" />
<glyph unicode="t" horiz-adv-x="384" d="M258 -10Q193 -10 151 14T93 82T85 182L119 395H75Q51 395 38 405T24 435Q24 461 41 475T87 489H134L149 585Q154 614 171 628T217 643Q249 643 263 625T272 574L259 489H357Q382 489 395 480T409 450Q409 426 394 411T351
395H244L211 190Q203 138 224 116T283 93Q301 93 311 96T332 99Q346 99 352 92T359 64Q359 30 348 17T318 -2Q306 -6 289 -8T258 -10Z" />
<glyph unicode="u" horiz-adv-x="579" d="M201 -10Q149 -10 112 12T60 80T55 197L94 439Q99 469 116 483T162 497Q193 497 207 480T217 428L181 198Q173 143 189 116T251 89Q307 89 342 126T387 227L420 439Q425 469 442 483T488 497Q520 497 534 479T543 427L484
51Q475 -8 416 -8Q387 -8 373 8T363 57L373 129L380 102Q354 47 308 19T201 -10Z" />
<glyph unicode="v" horiz-adv-x="527" d="M229 -8Q199 -8 182 7T156 51L57 411Q50 436 55 455T75 486T113 497Q139 497 153 485T175 440L254 110H224L420 454Q434 478 449 487T488 497Q512 497 525 487T540 459T529 420L302 39Q287 14 270 3T229 -8Z" />
<glyph unicode="w" horiz-adv-x="853" d="M215 -8Q190 -8 173 6T149 50L64 411Q58 437 63 456T84 486T121 497Q145 497 157 485T176 442L243 114H218L401 460Q412 480 425 488T460 497Q480 497 493 486T512 451L581 114H561L737 451Q751 477 766 487T806 497Q830
497 843 487T857 459T847 421L637 39Q624 15 606 4T562 -8Q537 -8 520 6T495 50L420 391H477L291 41Q278 16 260 4T215 -8Z" />
<glyph unicode="x" horiz-adv-x="546" d="M66 -8Q41 -8 27 5T13 37T31 75L224 276L223 223L100 412Q86 435 88 454T105 485T142 497Q162 497 178 488T208 458L301 310H267L406 464Q422 481 436 489T472 497Q498 497 511 484T525 452T507 415L327 224V280L460 78Q475
56 472 36T454 4T417 -8Q398 -8 381 2T352 31L249 192L289 191L131 25Q115 9 102 1T66 -8Z" />
<glyph unicode="y" horiz-adv-x="526" d="M124 -188Q100 -188 87 -177T73 -149T84 -111L179 45L171 -7L56 411Q49 436 54 455T74 486T113 497Q139 497 152 485T173 440L253 109H222L418 452Q432 476 447 486T486 497Q510 497 523 486T538 458T528 419L192 -143Q178
-167 163 -177T124 -188Z" />
<glyph unicode="z" horiz-adv-x="474" d="M69 0Q48 0 35 8T17 31T16 61T36 94L345 425L349 395H122Q98 395 85 405T72 434Q72 460 87 474T128 489H417Q438 489 451 481T469 458T469 427T447 392L137 61L133 94H375Q425 94 425 55Q425 30 410 15T369 0H69Z" />
<glyph unicode="{" horiz-adv-x="391" d="M221 -180Q174 -180 144 -165T102 -122T95 -59L126 135Q134 180 121 194T73 213Q57 215 48 226T39 253Q39 278 51 294T82 311Q122 313 140 329T166 389L197 583Q207 645 240 675T328 705H399Q426 705 438 693T450 659Q450
637 436 624T399 611H366Q347 611 335 601T319 567L289 375Q284 339 265 314T223 275T177 261L176 265Q198 265 217 251T248 212T253 149L223 -43Q219 -67 228 -76T257 -86H285Q302 -86 313 -97T324 -128Q324 -154 312 -167T274 -180H221Z" />
<glyph unicode="|" horiz-adv-x="288" d="M76 -188Q47 -188 34 -169T25 -115L146 651Q151 683 169 698T218 713Q247 713 260 695T269 640L148 -126Q139 -188 76 -188Z" />
<glyph unicode="}" horiz-adv-x="391" d="M-2 -180Q-29 -180 -41 -168T-53 -134Q-53 -111 -39 -99T-2 -86H31Q50 -86 62 -76T78 -42L108 150Q114 187 132 212T175 250T220 264L221 260Q200 260 180 274T150 314T144 376L174 568Q178 592 169 601T140 611H112Q96
611 85 622T73 653Q73 679 85 692T123 705H176Q224 705 253 690T295 648T302 584L271 390Q264 345 277 331T324 312Q341 310 349 300T358 272Q358 247 347 231T315 214Q275 213 257 196T231 136L200 -58Q190 -119 157 -149T69 -180H-2Z" />
<glyph unicode="~" horiz-adv-x="600" d="M417 209Q384 209 353 222T294 249Q269 263 247 272T204 282Q182 282 166 272T136 244Q124 229 109 228T82 234T66 257T73 290Q97 328 127 347T196 366Q230 366 262 353T322 325Q348 312 369 303T409 293Q432 293 448
304T478 331Q489 346 504 347T531 340T547 317T540 285Q516 248 486 229T417 209Z" />
<glyph unicode="&#xa0;" horiz-adv-x="271" />
<glyph unicode="&#xa1;" horiz-adv-x="248" d="M62 -188Q25 -188 7 -165T-2 -102L84 249Q89 268 99 277T128 287Q148 287 157 276T164 239L139 -112Q136 -149 117 -168T62 -188ZM154 346Q120 346 100 367T79 420Q79 453 99 473T154 494Q189 494 208 474T228 420Q228
388 209 367T154 346Z" />
<glyph unicode="&#xa2;" horiz-adv-x="600" d="M258 -123Q236 -123 223 -111T214 -70L229 25L246 4Q191 15 155 44T100 116T82 213Q82 263 96 310T140 396T216 460T325 492L297 459L315 574Q318 594 332 605T369 617Q389 617 404 605T414 565L398 466L381 494Q415
493 449 484T506 460Q523 450 529 436T532 408T520 384T495 372T463 377Q441 388 419 393T370 398Q326 398 296 382T246 339T219 280T210 214Q210 162 239 128T337 93Q356 93 379 98T424 115Q440 124 453 120T474 105T483 78T478 49T453 26Q417 8 376 1T303 -3L328
19L313 -80Q309 -101 295 -112T258 -123Z" />
<glyph unicode="&#xa3;" horiz-adv-x="600" d="M67 0Q36 0 21 13T6 47Q6 76 24 90T73 105H140L100 76L143 340L166 310H99Q74 310 63 321T52 348Q52 369 67 383T105 398H166L145 357L168 497Q180 570 211 618T294 690T423 715Q473 715 521 701T604 660Q621 647
625 631T625 600T609 575T582 564T550 574Q519 596 490 604T429 612Q371 612 338 584T296 502L275 370L264 398H400Q425 398 436 387T447 359Q447 337 432 324T394 310H266L233 105H479Q510 105 524 92T539 59Q539 34 521 17T472 0H67Z" />
<glyph unicode="&#xa4;" horiz-adv-x="600" d="M50 -12Q39 -1 39 14T50 40L105 97Q83 128 71 166T58 245Q58 287 70 325T105 394L50 451Q39 462 39 476T50 502Q61 513 75 513T102 501L157 445Q187 468 223 480T300 493Q340 493 376 481T442 446L495 501Q507 513
523 513T550 503Q562 491 562 476T550 448L495 392Q518 361 529 324T541 245Q541 204 529 167T494 97L550 40Q561 29 561 14T550 -12Q540 -22 525 -22T499 -10L444 46Q414 23 378 10T300 -3Q260 -3 223 10T156 45L101 -11Q90 -22 76 -22T50 -12ZM300 98Q338 98
369 118T419 171T438 245Q438 286 420 319T370 373T300 393Q262 393 230 373T180 320T161 245Q161 205 179 172T229 118T300 98Z" />
<glyph unicode="&#xa5;" horiz-adv-x="600" d="M260 -8Q229 -8 215 11T207 66L222 159H105Q80 159 66 170T52 201Q52 222 67 234T101 247H236L248 315H130Q105 315 91 326T77 357Q77 378 92 390T126 403H233L231 381L99 627Q87 649 91 668T110 700T151 713Q173
713 184 704T209 668L336 421H308L519 676Q536 696 549 704T582 713Q606 713 621 700T638 667T624 628L414 381L416 403H506Q532 403 545 392T559 361Q559 341 545 328T510 315H375L365 247H481Q507 247 520 236T534 205Q534 185 520 172T485 159H350L334 55Q324
-8 260 -8Z" />
<glyph unicode="&#xa6;" horiz-adv-x="288" d="M163 364Q134 364 121 383T112 437L146 651Q151 683 169 698T218 713Q247 713 261 695T270 640L236 426Q225 364 163 364ZM76 -188Q47 -188 34 -169T25 -115L59 99Q64 131 82 146T131 162Q160 162 174 143T183 89L149
-126Q140 -188 76 -188Z" />
<glyph unicode="&#xa7;" horiz-adv-x="570" d="M222 -190Q169 -190 122 -179T34 -145Q16 -135 10 -121T5 -93T18 -69T42 -57T74 -64Q106 -83 142 -92T218 -102Q254 -102 280 -90T320 -57T335 -7Q335 25 321 44T272 82L158 146Q121 167 97 191T60 244T47 302Q47
353 71 392T142 460L138 447Q130 463 126 480T121 520Q121 581 153 624T238 691T354 715Q401 715 443 705T528 671Q547 660 553 646T557 619T544 596T518 585T485 593Q457 609 423 618T357 627Q322 627 296 615T255 582T241 531Q241 500 255 481T304 441L416 378Q454
357 479 333T516 281T529 222Q529 172 504 132T432 63L435 82Q445 66 450 48T455 7Q455 -55 423 -99T339 -167T222 -190ZM158 324Q158 296 176 273T231 229L334 172Q356 160 371 148T396 121H382Q400 140 409 161T418 201Q418 229 399 252T343 296L242 351Q221
362 206 375T180 403L196 408Q176 388 167 366T158 324Z" />
<glyph unicode="&#xa8;" horiz-adv-x="513" d="M407 593Q382 593 368 605T354 641Q354 675 373 695T426 716Q452 716 465 704T479 668Q479 634 461 614T407 593ZM218 593Q192 593 178 605T164 641Q164 675 183 695T236 716Q262 716 276 704T290 668Q290 634 272
614T218 593Z" />
<glyph unicode="&#xa9;" horiz-adv-x="815" d="M425 -10Q348 -10 282 17T167 94T90 210T62 353Q62 430 89 496T166 611T282 687T425 715Q502 715 568 688T683 611T759 496T787 353Q787 276 760 210T683 95T568 18T425 -10ZM425 43Q491 43 547 66T644 132T708 230T731
353Q731 419 708 475T644 573T547 638T425 662Q359 662 303 639T206 574T141 476T118 353Q118 287 141 231T205 132T303 67T425 43ZM443 137Q343 137 285 196T226 355Q226 454 284 511T443 568Q472 568 503 561T563 537Q577 529 582 517T585 493T575 472T555 460T527
465Q507 476 489 480T452 485Q396 485 364 451T332 354Q332 292 364 257T452 221Q471 221 489 225T530 242Q548 252 562 246T582 226T585 196T565 170Q539 154 507 146T443 137Z" />
<glyph unicode="&#xaa;" horiz-adv-x="339" d="M165 408Q122 408 93 435T63 500Q63 546 107 567T238 589H297L290 545H242Q191 545 168 536T144 505Q144 486 157 475T191 463Q211 463 228 472T258 496T273 530L284 599Q289 627 274 640T226 654Q208 654 188 651T150
639Q134 634 123 639T109 656T111 678T133 696Q154 705 180 710T234 715Q283 715 313 697T355 649T361 579L339 444Q333 408 298 408Q278 408 270 419T263 447L267 469H264Q247 439 222 424T165 408Z" />
<glyph unicode="&#xab;" horiz-adv-x="494" d="M180 87Q157 77 138 85T109 115L61 224Q53 244 55 265T73 307L174 434Q186 449 203 452T237 448Q256 438 258 418T241 369L166 261L202 148Q209 126 204 111T180 87ZM387 87Q364 77 345 85T316 115L268 224Q260 244
262 265T280 307L381 434Q393 449 410 452T444 448Q463 438 465 418T448 369L373 261L409 148Q416 126 411 111T387 87Z" />
<glyph unicode="&#xac;" horiz-adv-x="600" d="M482 132Q460 132 450 146T443 185L469 344H117Q95 344 83 353T71 380Q71 404 84 418T123 432H500Q534 432 550 413T562 359L533 175Q527 132 482 132Z" />
<glyph unicode="&#xad;" horiz-adv-x="434" d="M119 218Q92 218 78 228T64 258Q64 284 78 300T118 317H324Q351 317 365 307T379 276Q379 251 365 235T324 218H119Z" />
<glyph unicode="&#xae;" horiz-adv-x="815" d="M425 -10Q348 -10 282 17T167 94T90 210T62 353Q62 430 89 496T166 611T282 687T425 715Q502 715 568 688T683 611T759 496T787 353Q787 276 760 210T683 95T568 18T425 -10ZM425 43Q491 43 547 66T644 132T708 230T731
353Q731 419 708 475T644 573T547 638T425 662Q359 662 303 639T206 574T141 476T118 353Q118 287 141 231T205 132T303 67T425 43ZM318 136Q270 136 270 186V508Q270 535 284 550T327 565H453Q524 565 561 531T599 440Q599 382 562 352T458 321L480 332Q512 332
531 318T565 260L587 194Q597 165 582 151T540 136Q523 136 512 146T496 174L467 266Q460 289 445 296T410 304H350L366 315V186Q366 136 318 136ZM365 376H440Q474 376 491 390T508 435Q508 465 491 479T440 493H365V376Z" />
<glyph unicode="&#xaf;" horiz-adv-x="531" d="M204 616Q164 616 164 647Q164 667 176 678T209 690H456Q496 690 496 659Q496 640 484 628T451 616H204Z" />
<glyph unicode="&#xb0;" horiz-adv-x="379" d="M239 402Q194 402 159 422T103 477T82 556Q82 600 102 635T159 690T240 710Q284 710 319 690T375 635T396 556Q396 512 376 477T320 422T239 402ZM239 473Q274 473 296 496T319 556Q319 592 297 615T239 639Q205
639 183 616T160 556Q160 520 182 497T239 473Z" />
<glyph unicode="&#xb1;" horiz-adv-x="600" d="M285 131Q263 131 252 145T245 184L262 291H109Q87 291 75 300T63 327Q63 351 76 365T115 379H277L294 494Q297 516 309 527T345 539Q367 539 377 525T384 486L368 379H520Q543 379 555 370T567 343Q567 319 554
305T515 291H353L335 176Q331 154 320 143T285 131ZM63 0Q40 0 28 9T16 36Q16 60 29 74T68 88H474Q497 88 509 79T521 52Q521 28 508 14T469 0H63Z" />
<glyph unicode="&#xb2;" horiz-adv-x="380" d="M103 282Q80 282 69 293T57 322Q57 338 63 348T83 371L219 491Q246 515 261 538T277 584Q278 604 264 615T225 626Q206 626 189 621T152 608Q136 601 123 607T104 626T103 655T126 680Q155 695 187 702T250 709Q294
709 324 694T370 653T385 597Q384 552 360 519T282 440L164 338L163 366H319Q364 366 364 331Q364 309 351 296T314 282H103Z" />
<glyph unicode="&#xb3;" horiz-adv-x="380" d="M201 277Q166 277 130 285T67 310Q50 321 47 336T51 365T74 383T108 378Q126 368 149 364T200 360Q230 360 249 372T269 413Q270 434 255 443T210 453H173Q153 453 140 461T127 488Q127 508 140 522T179 537H216Q248
537 268 549T289 587Q289 607 274 616T230 626Q201 626 181 620T148 607Q130 598 117 604T99 624T98 653T121 678Q144 690 175 699T246 709Q311 709 349 681T387 606Q387 565 358 534T282 495V503Q322 495 344 469T367 406Q367 369 345 340T286 294T201 277Z" />
<glyph unicode="&#xb4;" horiz-adv-x="373" d="M218 559Q206 545 192 544T167 549T154 571T161 601L257 748Q269 767 285 772T315 772T339 755T349 728T336 696L218 559Z" />
<glyph unicode="&#xb5;" horiz-adv-x="600" d="M68 -188Q39 -188 26 -170T17 -117L106 438Q111 469 128 483T176 497Q206 497 220 479T229 426L193 198Q184 143 201 116T263 89Q319 89 354 127T399 227L432 437Q437 468 454 482T503 497Q533 497 546 479T555 426L496
52Q487 -8 427 -8Q400 -8 385 7T373 45L382 102H385Q367 49 333 20T252 -10Q218 -10 193 4T155 44L158 45L138 -126Q134 -157 117 -172T68 -188Z" />
<glyph unicode="&#xb6;" horiz-adv-x="624" d="M225 -188Q204 -188 194 -174T188 -135L254 282Q198 282 157 306T94 372T72 466Q72 538 102 591T186 675T313 705H555Q586 705 600 689T610 640L486 -143Q479 -188 433 -188Q412 -188 402 -174T396 -135L515 616H398L278
-143Q271 -188 225 -188Z" />
<glyph unicode="&#xb7;" horiz-adv-x="248" d="M129 194Q95 194 75 214T54 268Q54 300 74 320T129 341Q164 341 183 321T203 268Q203 235 184 215T129 194Z" />
<glyph unicode="&#xb8;" horiz-adv-x="416" d="M134 -195Q115 -195 97 -193T62 -186Q46 -182 41 -171T38 -147T51 -129T78 -127Q89 -131 102 -133T129 -135Q157 -135 171 -127T186 -103Q186 -93 178 -88T152 -82Q145 -82 138 -82T122 -85Q114 -86 108 -86T98 -82Q94
-77 94 -72T95 -59L120 20H186L162 -56L131 -45Q143 -41 155 -39T177 -37Q216 -37 238 -54T260 -103Q260 -145 224 -170T134 -195Z" />
<glyph unicode="&#xb9;" horiz-adv-x="380" d="M119 282Q75 282 75 319Q75 339 88 352T125 366H186L226 620L284 619L182 566Q160 554 143 560T119 581T117 614T145 643L241 692Q252 697 265 702T296 708Q319 708 326 699T334 678T333 660L286 366H316Q361 366
361 330Q361 310 348 296T311 282H119Z" />
<glyph unicode="&#xba;" horiz-adv-x="353" d="M221 410Q177 410 143 427T90 477T70 552Q70 602 92 639T150 695T232 715Q276 715 310 698T363 649T383 573Q383 523 362 486T303 430T221 410ZM222 472Q257 472 278 497T300 574Q300 612 281 632T231 653Q197 653
175 628T153 551Q153 513 172 493T222 472Z" />
<glyph unicode="&#xbb;" horiz-adv-x="494" d="M57 85Q38 95 36 115T53 164L128 272L92 385Q85 407 90 423T114 446Q137 456 156 448T185 418L233 309Q241 290 239 268T221 226L120 99Q108 84 91 81T57 85ZM264 85Q245 95 243 115T260 164L335 272L299 385Q292
407 297 423T321 446Q344 456 363 448T392 418L440 309Q448 290 446 268T428 226L327 99Q315 84 298 81T264 85Z" />
<glyph unicode="&#xbc;" horiz-adv-x="912" d="M119 282Q75 282 75 319Q75 339 88 352T125 366H186L226 620L284 619L182 566Q160 554 143 560T119 581T117 614T145 643L241 692Q252 697 265 702T296 708Q319 708 326 699T334 678T333 660L286 366H316Q361 366
361 330Q361 310 348 296T311 282H119ZM299 4Q288 -11 274 -15T247 -16T225 -2T216 22T227 53L705 702Q716 717 730 721T757 722T778 708T787 683T776 652L299 4ZM753 -4Q731 -4 719 6T711 39L716 71H585Q563 71 547 78T530 107Q530 121 536 132T551 154L752 392Q763
406 778 417T821 428Q847 428 857 416T864 378L829 155H845Q857 155 868 146T880 118Q880 102 868 87T835 71H816L811 40Q807 18 792 7T753 -4ZM729 155L756 322H784L626 135L625 155H729Z" />
<glyph unicode="&#xbd;" horiz-adv-x="960" d="M119 282Q75 282 75 319Q75 339 88 352T125 366H186L226 620L284 619L182 566Q160 554 143 560T119 581T117 614T145 643L241 692Q252 697 265 702T296 708Q319 708 326 699T334 678T333 660L286 366H316Q361 366
361 330Q361 310 348 296T311 282H119ZM299 4Q288 -11 274 -15T247 -16T225 -2T216 22T227 53L705 702Q716 717 730 721T757 722T778 708T787 683T776 652L299 4ZM638 0Q615 0 604 11T592 40Q592 56 598 66T618 89L754 209Q781 233 796 256T812 302Q813 322 799
333T760 344Q741 344 724 339T687 326Q671 319 658 325T639 344T638 373T661 398Q690 413 722 420T785 427Q829 427 859 412T905 371T920 315Q919 270 895 237T817 158L699 56L698 84H854Q899 84 899 49Q899 27 886 14T849 0H638Z" />
<glyph unicode="&#xbe;" horiz-adv-x="912" d="M201 277Q166 277 130 285T67 310Q50 321 47 336T51 365T74 383T108 378Q126 368 149 364T200 360Q230 360 249 372T269 413Q270 434 255 443T210 453H173Q153 453 140 461T127 488Q127 508 140 522T179 537H216Q248
537 268 549T289 587Q289 607 274 616T230 626Q201 626 181 620T148 607Q130 598 117 604T99 624T98 653T121 678Q144 690 175 699T246 709Q311 709 349 681T387 606Q387 565 358 534T282 495V503Q322 495 344 469T367 406Q367 369 345 340T286 294T201 277ZM299
4Q288 -11 274 -15T247 -16T225 -2T216 22T227 53L705 702Q716 717 730 721T757 722T778 708T787 683T776 652L299 4ZM753 -4Q731 -4 719 6T711 39L716 71H585Q563 71 547 78T530 107Q530 121 536 132T551 154L752 392Q763 406 778 417T821 428Q847 428 857 416T864
378L829 155H845Q857 155 868 146T880 118Q880 102 868 87T835 71H816L811 40Q807 18 792 7T753 -4ZM729 155L756 322H784L626 135L625 155H729Z" />
<glyph unicode="&#xbf;" horiz-adv-x="459" d="M159 -190Q102 -190 60 -171T-6 -118T-29 -43Q-29 12 3 54T88 130Q123 152 144 173T178 215T197 260Q201 273 208 280T235 288Q256 288 267 276T273 239Q268 212 259 187T229 138T172 86Q138 61 119 37T99 -18Q99
-46 119 -64T179 -82Q217 -82 249 -75T318 -48Q340 -37 356 -39T382 -53T394 -80T389 -112T363 -139Q318 -166 265 -178T159 -190ZM265 346Q231 346 211 367T190 420Q190 453 210 473T265 494Q300 494 319 474T339 420Q339 388 320 367T265 346Z" />
<glyph unicode="&#xc0;" horiz-adv-x="744" d="M52 -8Q29 -8 14 2T-4 30T5 69L372 669Q386 692 403 702T445 713Q471 713 488 700T512 661L684 72Q692 45 687 28T668 1T634 -8Q606 -8 592 6T569 49L532 190L572 163H158L208 187L116 30Q105 11 90 2T52 -8ZM430
566L240 242L218 265H545L518 240L432 566H430ZM404 773L321 873Q307 890 308 905T319 933T344 950T376 950T403 924L468 818Q477 802 473 788T457 766T431 758T404 773Z" />
<glyph unicode="&#xc1;" horiz-adv-x="744" d="M52 -8Q29 -8 14 2T-4 30T5 69L372 669Q386 692 403 702T445 713Q471 713 488 700T512 661L684 72Q692 45 687 28T668 1T634 -8Q606 -8 592 6T569 49L532 190L572 163H158L208 187L116 30Q105 11 90 2T52 -8ZM430
566L240 242L218 265H545L518 240L432 566H430ZM506 771Q493 758 479 758T453 765T440 787T448 815L533 928Q546 946 562 950T593 949T617 933T626 906T610 875L506 771Z" />
<glyph unicode="&#xc2;" horiz-adv-x="744" d="M52 -8Q29 -8 14 2T-4 30T5 69L372 669Q386 692 403 702T445 713Q471 713 488 700T512 661L684 72Q692 45 687 28T668 1T634 -8Q606 -8 592 6T569 49L532 190L572 163H158L208 187L116 30Q105 11 90 2T52 -8ZM430
566L240 242L218 265H545L518 240L432 566H430ZM363 770Q351 757 337 756T311 762T298 782T306 808L389 911Q406 932 425 942T469 952Q493 952 510 940T540 905L599 810Q610 793 606 780T588 760T559 756T531 775L460 869L363 770Z" />
<glyph unicode="&#xc3;" horiz-adv-x="744" d="M52 -8Q29 -8 14 2T-4 30T5 69L372 669Q386 692 403 702T445 713Q471 713 488 700T512 661L684 72Q692 45 687 28T668 1T634 -8Q606 -8 592 6T569 49L532 190L572 163H158L208 187L116 30Q105 11 90 2T52 -8ZM430
566L240 242L218 265H545L518 240L432 566H430ZM262 770Q247 771 240 781T238 811Q255 870 290 897T372 924Q400 924 424 914T469 891T511 868T551 858Q573 858 591 869T617 904Q622 918 630 924T655 930Q670 929 677 919T679 889Q663 831 627 804T544 776Q516
776 492 786T447 809T406 832T366 842Q344 842 327 831T300 796Q295 782 287 776T262 770Z" />
<glyph unicode="&#xc4;" horiz-adv-x="744" d="M52 -8Q29 -8 14 2T-4 30T5 69L372 669Q386 692 403 702T445 713Q471 713 488 700T512 661L684 72Q692 45 687 28T668 1T634 -8Q606 -8 592 6T569 49L532 190L572 163H158L208 187L116 30Q105 11 90 2T52 -8ZM430
566L240 242L218 265H545L518 240L432 566H430ZM553 786Q527 786 513 798T499 834Q499 868 518 888T571 909Q597 909 611 897T625 861Q625 827 607 807T553 786ZM364 786Q339 786 325 798T311 834Q311 868 330 888T383 909Q409 909 422 897T436 861Q436 827 418
807T364 786Z" />
<glyph unicode="&#xc5;" horiz-adv-x="744" d="M52 -8Q29 -8 14 2T-4 30T5 69L372 669Q386 692 403 702T445 713Q471 713 488 700T512 661L684 72Q692 45 687 28T668 1T634 -8Q606 -8 592 6T569 49L532 190L572 163H158L208 187L116 30Q105 11 90 2T52 -8ZM430
566L240 242L218 265H545L518 240L432 566H430ZM468 755Q433 755 404 771T359 816T342 878Q342 913 358 940T404 984T468 1000Q504 1000 532 984T577 941T594 878Q594 844 578 816T533 772T468 755ZM468 812Q497 812 515 831T533 878Q533 906 515 924T468 943Q440
943 422 925T403 878Q403 850 421 831T468 812Z" />
<glyph unicode="&#xc6;" horiz-adv-x="993" d="M21 -8Q-6 -8 -19 4T-32 35T-19 71L449 672Q463 690 479 697T518 705H962Q988 705 1002 695T1016 664Q1016 635 1000 619T955 603H559L597 637L613 374L572 409H893Q919 409 933 399T947 368Q947 339 931 323T887
307H579L614 342L630 65L589 102H867Q893 102 907 92T921 61Q921 33 905 17T860 0H578Q522 0 519 55L511 201L547 163H161L214 197L85 26Q72 8 57 0T21 -8ZM488 562L241 234L237 265H538L509 230L490 562H488Z" />
<glyph unicode="&#xc7;" horiz-adv-x="680" d="M393 -10Q299 -10 227 25T113 132T71 310Q71 396 96 469T170 598T290 684T451 715Q509 715 562 700T655 656Q673 643 677 626T677 591T661 562T633 547T600 555Q561 581 524 591T447 601Q370 601 317 564T235 461T207
314Q207 240 229 194T296 126T405 104Q442 104 476 113T546 143Q566 155 582 153T610 138T624 110T622 77T597 48Q553 19 498 5T393 -10ZM350 -195Q331 -195 313 -193T278 -186Q262 -182 257 -171T254 -147T267 -129T294 -127Q305 -131 318 -133T345 -135Q373 -135
387 -127T402 -103Q402 -93 394 -88T368 -82Q361 -82 354 -82T338 -85Q330 -86 324 -86T314 -82Q310 -77 310 -72T311 -59L336 20H402L378 -56L347 -45Q359 -41 371 -39T393 -37Q432 -37 454 -54T476 -103Q476 -145 440 -170T350 -195Z" />
<glyph unicode="&#xc8;" horiz-adv-x="597" d="M113 0Q77 0 61 19T50 73L140 643Q145 674 163 689T213 705H566Q592 705 606 695T620 664Q620 635 604 619T560 603H257L226 409H498Q524 409 537 399T551 368Q551 339 535 323T491 307H210L177 102H470Q496 102
510 92T524 61Q524 32 508 16T464 0H113ZM360 773L277 873Q263 890 264 905T275 933T300 950T332 950T359 924L424 818Q433 802 429 788T413 766T387 758T360 773Z" />
<glyph unicode="&#xc9;" horiz-adv-x="597" d="M113 0Q77 0 61 19T50 73L140 643Q145 674 163 689T213 705H566Q592 705 606 695T620 664Q620 635 604 619T560 603H257L226 409H498Q524 409 537 399T551 368Q551 339 535 323T491 307H210L177 102H470Q496 102
510 92T524 61Q524 32 508 16T464 0H113ZM462 771Q449 758 435 758T409 765T396 787T404 815L489 928Q502 946 518 950T549 949T573 933T582 906T566 875L462 771Z" />
<glyph unicode="&#xca;" horiz-adv-x="597" d="M113 0Q77 0 61 19T50 73L140 643Q145 674 163 689T213 705H566Q592 705 606 695T620 664Q620 635 604 619T560 603H257L226 409H498Q524 409 537 399T551 368Q551 339 535 323T491 307H210L177 102H470Q496 102
510 92T524 61Q524 32 508 16T464 0H113ZM319 770Q307 757 293 756T267 762T254 782T262 808L345 911Q362 932 381 942T425 952Q449 952 466 940T496 905L555 810Q566 793 562 780T544 760T515 756T487 775L416 869L319 770Z" />
<glyph unicode="&#xcb;" horiz-adv-x="597" d="M113 0Q77 0 61 19T50 73L140 643Q145 674 163 689T213 705H566Q592 705 606 695T620 664Q620 635 604 619T560 603H257L226 409H498Q524 409 537 399T551 368Q551 339 535 323T491 307H210L177 102H470Q496 102
510 92T524 61Q524 32 508 16T464 0H113ZM509 786Q483 786 469 798T455 834Q455 868 474 888T527 909Q553 909 567 897T581 861Q581 827 563 807T509 786ZM320 786Q295 786 281 798T267 834Q267 868 286 888T339 909Q365 909 378 897T392 861Q392 827 374 807T320
786Z" />
<glyph unicode="&#xcc;" horiz-adv-x="282" d="M104 -8Q71 -8 57 12T49 68L141 649Q146 681 164 697T214 713Q246 713 259 694T267 637L175 57Q170 25 153 9T104 -8ZM173 773L90 873Q76 890 77 905T88 933T113 950T145 950T172 924L237 818Q246 802 242 788T226
766T200 758T173 773Z" />
<glyph unicode="&#xcd;" horiz-adv-x="282" d="M104 -8Q71 -8 57 12T49 68L141 649Q146 681 164 697T214 713Q246 713 259 694T267 637L175 57Q170 25 153 9T104 -8ZM275 771Q262 758 248 758T222 765T209 787T217 815L302 928Q315 946 331 950T362 949T386 933T395
906T379 875L275 771Z" />
<glyph unicode="&#xce;" horiz-adv-x="282" d="M104 -8Q71 -8 57 12T49 68L141 649Q146 681 164 697T214 713Q246 713 259 694T267 637L175 57Q170 25 153 9T104 -8ZM132 770Q120 757 106 756T80 762T67 782T75 808L158 911Q175 932 194 942T238 952Q262 952 279
940T309 905L368 810Q379 793 375 780T357 760T328 756T300 775L229 869L132 770Z" />
<glyph unicode="&#xcf;" horiz-adv-x="282" d="M104 -8Q71 -8 57 12T49 68L141 649Q146 681 164 697T214 713Q246 713 259 694T267 637L175 57Q170 25 153 9T104 -8ZM322 786Q296 786 282 798T268 834Q268 868 287 888T340 909Q366 909 380 897T394 861Q394 827
376 807T322 786ZM133 786Q108 786 94 798T80 834Q80 868 99 888T152 909Q178 909 191 897T205 861Q205 827 187 807T133 786Z" />
<glyph unicode="&#xd0;" horiz-adv-x="762" d="M112 0Q78 0 61 19T50 73L140 643Q145 674 163 689T213 705H376Q544 705 635 626T727 404Q727 319 702 246T627 117T501 31T323 0H112ZM183 106H325Q395 106 446 128T529 191T577 285T593 402Q593 498 539 548T376
599H261L183 106ZM51 310Q26 310 13 320T-1 349Q-1 375 14 389T57 404H369Q394 404 407 395T421 366Q421 340 406 325T363 310H51Z" />
<glyph unicode="&#xd1;" horiz-adv-x="747" d="M100 -8Q72 -8 58 10T48 63L143 659Q148 687 163 700T202 713Q227 713 239 704T265 673L564 166H539L616 654Q621 684 638 698T685 713Q713 713 725 695T733 643L639 48Q635 20 621 6T584 -8Q559 -8 544 2T516 34L217
539H242L165 51Q161 21 146 7T100 -8ZM262 770Q247 771 240 781T238 811Q255 870 290 897T372 924Q400 924 424 914T469 891T511 868T551 858Q573 858 591 869T617 904Q622 918 630 924T655 930Q670 929 677 919T679 889Q663 831 627 804T544 776Q516 776 492 786T447
809T406 832T366 842Q344 842 327 831T300 796Q295 782 287 776T262 770Z" />
<glyph unicode="&#xd2;" horiz-adv-x="785" d="M381 -10Q287 -10 217 26T109 131T70 299Q70 389 95 465T169 597T285 684T439 715Q534 715 603 679T711 574T750 407Q750 316 725 240T651 108T535 21T381 -10ZM383 100Q458 100 510 139T589 248T616 405Q616 506
568 555T436 605Q362 605 310 566T231 459T204 301Q204 199 252 150T383 100ZM412 773L329 873Q315 890 316 905T327 933T352 950T384 950T411 924L476 818Q485 802 481 788T465 766T439 758T412 773Z" />
<glyph unicode="&#xd3;" horiz-adv-x="785" d="M381 -10Q287 -10 217 26T109 131T70 299Q70 389 95 465T169 597T285 684T439 715Q534 715 603 679T711 574T750 407Q750 316 725 240T651 108T535 21T381 -10ZM383 100Q458 100 510 139T589 248T616 405Q616 506
568 555T436 605Q362 605 310 566T231 459T204 301Q204 199 252 150T383 100ZM514 771Q501 758 487 758T461 765T448 787T456 815L541 928Q554 946 570 950T601 949T625 933T634 906T618 875L514 771Z" />
<glyph unicode="&#xd4;" horiz-adv-x="785" d="M381 -10Q287 -10 217 26T109 131T70 299Q70 389 95 465T169 597T285 684T439 715Q534 715 603 679T711 574T750 407Q750 316 725 240T651 108T535 21T381 -10ZM383 100Q458 100 510 139T589 248T616 405Q616 506
568 555T436 605Q362 605 310 566T231 459T204 301Q204 199 252 150T383 100ZM371 770Q359 757 345 756T319 762T306 782T314 808L397 911Q414 932 433 942T477 952Q501 952 518 940T548 905L607 810Q618 793 614 780T596 760T567 756T539 775L468 869L371 770Z"
/>
<glyph unicode="&#xd5;" horiz-adv-x="785" d="M381 -10Q287 -10 217 26T109 131T70 299Q70 389 95 465T169 597T285 684T439 715Q534 715 603 679T711 574T750 407Q750 316 725 240T651 108T535 21T381 -10ZM383 100Q458 100 510 139T589 248T616 405Q616 506
568 555T436 605Q362 605 310 566T231 459T204 301Q204 199 252 150T383 100ZM270 770Q255 771 248 781T246 811Q263 870 298 897T380 924Q408 924 432 914T477 891T519 868T559 858Q581 858 599 869T625 904Q630 918 638 924T663 930Q678 929 685 919T687 889Q671
831 635 804T552 776Q524 776 500 786T455 809T414 832T374 842Q352 842 335 831T308 796Q303 782 295 776T270 770Z" />
<glyph unicode="&#xd6;" horiz-adv-x="785" d="M381 -10Q287 -10 217 26T109 131T70 299Q70 389 95 465T169 597T285 684T439 715Q534 715 603 679T711 574T750 407Q750 316 725 240T651 108T535 21T381 -10ZM383 100Q458 100 510 139T589 248T616 405Q616 506
568 555T436 605Q362 605 310 566T231 459T204 301Q204 199 252 150T383 100ZM561 786Q535 786 521 798T507 834Q507 868 526 888T579 909Q605 909 619 897T633 861Q633 827 615 807T561 786ZM372 786Q347 786 333 798T319 834Q319 868 338 888T391 909Q417 909
430 897T444 861Q444 827 426 807T372 786Z" />
<glyph unicode="&#xd7;" horiz-adv-x="600" d="M146 77Q128 61 111 62T82 76T70 106T85 139L245 287L112 432Q100 446 99 460T105 485T125 503T151 508T179 491L310 348L469 494Q487 510 504 509T533 495T546 465T530 432L369 285L504 136Q516 123 517 109T511
83T491 66T465 62T437 79L305 223L146 77Z" />
<glyph unicode="&#xd8;" horiz-adv-x="785" d="M381 -10Q287 -10 217 26T109 131T70 299Q70 389 95 465T169 597T285 684T439 715Q534 715 603 679T711 574T750 407Q750 316 725 240T651 108T535 21T381 -10ZM383 100Q458 100 510 139T589 248T616 405Q616 506
568 555T436 605Q362 605 310 566T231 459T204 301Q204 199 252 150T383 100ZM182 -28Q171 -42 158 -45T132 -44T111 -29T102 -4T112 26L173 107L212 160L536 597L576 651L635 730Q647 746 661 749T688 749T709 733T717 708T706 678L647 599L608 545L284 109L244
55L182 -28Z" />
<glyph unicode="&#xd9;" horiz-adv-x="738" d="M341 -10Q274 -10 221 9T132 68T83 167T82 307L137 653Q142 684 159 698T207 713Q239 713 253 695T263 642L209 298Q194 201 229 151T350 100Q432 100 479 142T542 277L602 653Q607 684 624 698T672 713Q703 713
717 695T727 642L670 279Q655 185 616 121T509 23T341 -10ZM400 773L317 873Q303 890 304 905T315 933T340 950T372 950T399 924L464 818Q473 802 469 788T453 766T427 758T400 773Z" />
<glyph unicode="&#xda;" horiz-adv-x="738" d="M341 -10Q274 -10 221 9T132 68T83 167T82 307L137 653Q142 684 159 698T207 713Q239 713 253 695T263 642L209 298Q194 201 229 151T350 100Q432 100 479 142T542 277L602 653Q607 684 624 698T672 713Q703 713
717 695T727 642L670 279Q655 185 616 121T509 23T341 -10ZM502 771Q489 758 475 758T449 765T436 787T444 815L529 928Q542 946 558 950T589 949T613 933T622 906T606 875L502 771Z" />
<glyph unicode="&#xdb;" horiz-adv-x="738" d="M341 -10Q274 -10 221 9T132 68T83 167T82 307L137 653Q142 684 159 698T207 713Q239 713 253 695T263 642L209 298Q194 201 229 151T350 100Q432 100 479 142T542 277L602 653Q607 684 624 698T672 713Q703 713
717 695T727 642L670 279Q655 185 616 121T509 23T341 -10ZM359 770Q347 757 333 756T307 762T294 782T302 808L385 911Q402 932 421 942T465 952Q489 952 506 940T536 905L595 810Q606 793 602 780T584 760T555 756T527 775L456 869L359 770Z" />
<glyph unicode="&#xdc;" horiz-adv-x="738" d="M341 -10Q274 -10 221 9T132 68T83 167T82 307L137 653Q142 684 159 698T207 713Q239 713 253 695T263 642L209 298Q194 201 229 151T350 100Q432 100 479 142T542 277L602 653Q607 684 624 698T672 713Q703 713
717 695T727 642L670 279Q655 185 616 121T509 23T341 -10ZM549 786Q523 786 509 798T495 834Q495 868 514 888T567 909Q593 909 607 897T621 861Q621 827 603 807T549 786ZM360 786Q335 786 321 798T307 834Q307 868 326 888T379 909Q405 909 418 897T432 861Q432
827 414 807T360 786Z" />
<glyph unicode="&#xdd;" horiz-adv-x="618" d="M269 -8Q238 -8 225 12T217 67L264 363L278 286L93 622Q80 646 82 666T100 700T142 713Q165 713 179 703T209 665L343 417H315L536 673Q556 696 571 704T608 713Q633 713 647 699T662 664T644 622L352 286L392 363L343
56Q333 -8 269 -8ZM432 771Q419 758 405 758T379 765T366 787T374 815L459 928Q472 946 488 950T519 949T543 933T552 906T536 875L432 771Z" />
<glyph unicode="&#xde;" horiz-adv-x="654" d="M102 -8Q71 -8 57 12T49 68L140 644Q145 676 164 692T215 708Q245 708 260 693T270 651L259 587H406Q523 587 584 537T646 392Q646 277 575 212T368 146H189L175 56Q170 24 152 8T102 -8ZM205 247H375Q447 247 484
281T522 381Q522 436 490 461T392 486H243L205 247Z" />
<glyph unicode="&#xdf;" horiz-adv-x="653" d="M410 -10Q366 -10 323 1T247 30Q230 40 224 54T219 84T231 110T254 124T285 117Q315 100 347 92T412 83Q454 83 477 98T500 143Q500 163 483 179T415 213Q351 235 324 265T296 337Q296 366 305 388T335 433T388 482Q414
503 429 522T444 569Q444 591 429 607T378 624Q314 624 277 589T228 481L160 51Q156 22 139 7T92 -8Q61 -8 47 10T37 61L100 463Q120 588 187 651T381 715Q437 715 477 697T540 649T562 583Q562 538 541 507T480 443Q455 422 440 408T418 382T411 356Q411 337 428
322T495 290Q552 270 583 239T614 156Q614 103 589 66T517 10T410 -10Z" />
<glyph unicode="&#xe0;" horiz-adv-x="547" d="M193 -10Q148 -10 111 10T52 65T29 141Q29 193 58 225T148 274T304 290H384L373 218H310Q251 218 216 212T166 191T151 149Q151 114 174 95T232 76Q264 76 290 89T334 128T357 189L376 308Q384 355 362 380T283 405Q250
405 219 399T155 377Q136 369 121 372T97 385T86 410T94 439T126 463Q168 482 213 490T299 499Q378 499 423 470T484 391T490 277L455 54Q451 23 434 8T387 -8Q360 -8 347 9T338 61L348 124L355 104Q341 65 316 40T259 2T193 -10ZM271 564L180 695Q166 715 168
731T181 758T209 771T241 766T269 736L339 599Q348 582 343 569T326 548T298 544T271 564Z" />
<glyph unicode="&#xe1;" horiz-adv-x="547" d="M193 -10Q148 -10 111 10T52 65T29 141Q29 193 58 225T148 274T304 290H384L373 218H310Q251 218 216 212T166 191T151 149Q151 114 174 95T232 76Q264 76 290 89T334 128T357 189L376 308Q384 355 362 380T283 405Q250
405 219 399T155 377Q136 369 121 372T97 385T86 410T94 439T126 463Q168 482 213 490T299 499Q378 499 423 470T484 391T490 277L455 54Q451 23 434 8T387 -8Q360 -8 347 9T338 61L348 124L355 104Q341 65 316 40T259 2T193 -10ZM367 559Q355 545 341 544T316
549T303 571T310 601L406 748Q418 767 434 772T464 772T488 755T498 728T485 696L367 559Z" />
<glyph unicode="&#xe2;" horiz-adv-x="547" d="M193 -10Q148 -10 111 10T52 65T29 141Q29 193 58 225T148 274T304 290H384L373 218H310Q251 218 216 212T166 191T151 149Q151 114 174 95T232 76Q264 76 290 89T334 128T357 189L376 308Q384 355 362 380T283 405Q250
405 219 399T155 377Q136 369 121 372T97 385T86 410T94 439T126 463Q168 482 213 490T299 499Q378 499 423 470T484 391T490 277L455 54Q451 23 434 8T387 -8Q360 -8 347 9T338 61L348 124L355 104Q341 65 316 40T259 2T193 -10ZM463 597Q471 580 465 567T447
548T421 544T399 562L332 686L237 560Q227 547 213 545T188 548T173 568T180 597L264 727Q278 750 296 762T338 774Q361 774 378 763T405 728L463 597Z" />
<glyph unicode="&#xe3;" horiz-adv-x="547" d="M193 -10Q148 -10 111 10T52 65T29 141Q29 193 58 225T148 274T304 290H384L373 218H310Q251 218 216 212T166 191T151 149Q151 114 174 95T232 76Q264 76 290 89T334 128T357 189L376 308Q384 355 362 380T283 405Q250
405 219 399T155 377Q136 369 121 372T97 385T86 410T94 439T126 463Q168 482 213 490T299 499Q378 499 423 470T484 391T490 277L455 54Q451 23 434 8T387 -8Q360 -8 347 9T338 61L348 124L355 104Q341 65 316 40T259 2T193 -10ZM164 582Q149 583 142 593T138
619Q144 647 156 669T184 706T219 728T261 736Q286 736 304 726T337 703T367 680T401 670Q421 670 437 683T460 717Q464 730 474 736T498 742Q513 741 520 732T524 705Q516 668 498 642T456 602T401 588Q376 588 358 598T324 621T294 644T261 654Q242 654 225 641T202
607Q198 594 188 588T164 582Z" />
<glyph unicode="&#xe4;" horiz-adv-x="547" d="M193 -10Q148 -10 111 10T52 65T29 141Q29 193 58 225T148 274T304 290H384L373 218H310Q251 218 216 212T166 191T151 149Q151 114 174 95T232 76Q264 76 290 89T334 128T357 189L376 308Q384 355 362 380T283 405Q250
405 219 399T155 377Q136 369 121 372T97 385T86 410T94 439T126 463Q168 482 213 490T299 499Q378 499 423 470T484 391T490 277L455 54Q451 23 434 8T387 -8Q360 -8 347 9T338 61L348 124L355 104Q341 65 316 40T259 2T193 -10ZM423 593Q398 593 384 605T370
641Q370 675 389 695T442 716Q468 716 481 704T495 668Q495 634 477 614T423 593ZM234 593Q208 593 194 605T180 641Q180 675 199 695T252 716Q278 716 292 704T306 668Q306 634 288 614T234 593Z" />
<glyph unicode="&#xe5;" horiz-adv-x="547" d="M193 -10Q148 -10 111 10T52 65T29 141Q29 193 58 225T148 274T304 290H384L373 218H310Q251 218 216 212T166 191T151 149Q151 114 174 95T232 76Q264 76 290 89T334 128T357 189L376 308Q384 355 362 380T283 405Q250
405 219 399T155 377Q136 369 121 372T97 385T86 410T94 439T126 463Q168 482 213 490T299 499Q378 499 423 470T484 391T490 277L455 54Q451 23 434 8T387 -8Q360 -8 347 9T338 61L348 124L355 104Q341 65 316 40T259 2T193 -10ZM340 546Q305 546 276 562T231
606T214 668Q214 703 230 730T276 774T340 791Q376 791 404 775T449 731T466 668Q466 634 450 606T405 562T340 546ZM340 603Q368 603 386 622T405 668Q405 697 387 715T340 733Q312 733 294 715T275 669Q275 640 293 622T340 603Z" />
<glyph unicode="&#xe6;" horiz-adv-x="865" d="M215 -10Q167 -10 125 7T56 58T29 141Q29 193 58 225T148 274T304 290H384L374 218H311Q252 218 217 212T167 190T151 148Q151 115 174 97T232 78Q264 78 290 90T333 127T356 185L375 303Q383 353 361 379T283 405Q250
405 219 399T155 377Q136 369 121 372T97 385T86 410T94 439T126 463Q168 482 213 490T299 499Q367 499 408 473T466 397H434Q467 445 516 472T630 499Q695 499 737 477T802 418T832 339T833 256L831 242Q830 229 822 224T800 218H459L469 290H749L732 273Q738
312 730 344T697 395T628 414Q586 414 557 394T511 343T488 275L483 244Q471 170 506 128T612 85Q642 85 674 91T732 113Q751 124 765 123T788 112T799 89T795 61T772 35Q737 12 689 1T601 -10Q518 -10 464 26T390 128H415Q393 57 338 24T215 -10Z" />
<glyph unicode="&#xe7;" horiz-adv-x="472" d="M270 -10Q192 -10 141 18T63 96T37 213Q37 267 53 318T104 410T190 475T314 499Q350 499 385 491T447 468Q467 457 474 443T480 413T468 387T445 373T415 378Q392 391 370 396T322 402Q279 402 249 386T201 343T174
282T165 214Q165 157 193 122T288 87Q307 87 328 92T374 110Q388 117 401 114T423 101T434 77T431 49T407 24Q381 8 342 -1T270 -10ZM224 -195Q205 -195 187 -193T152 -186Q136 -182 131 -171T128 -147T141 -129T168 -127Q179 -131 192 -133T219 -135Q247 -135
261 -127T276 -103Q276 -93 268 -88T242 -82Q235 -82 228 -82T212 -85Q204 -86 198 -86T188 -82Q184 -77 184 -72T185 -59L210 20H276L252 -56L221 -45Q233 -41 245 -39T267 -37Q306 -37 328 -54T350 -103Q350 -145 314 -170T224 -195Z" />
<glyph unicode="&#xe8;" horiz-adv-x="542" d="M280 -10Q206 -10 152 17T67 95T37 212Q37 294 71 358T167 461T307 499Q368 499 409 478T474 422T506 341T509 249Q507 228 498 222T473 216H137L147 288H427L410 273Q416 313 407 344T374 395T306 414Q262 414 232
394T185 343T162 275L157 244Q145 171 181 128T291 85Q321 85 353 91T411 113Q430 124 444 123T467 112T478 89T474 61T451 35Q416 12 368 1T280 -10ZM281 564L190 695Q176 715 178 731T191 758T219 771T251 766T279 736L349 599Q358 582 353 569T336 548T308 544T281
564Z" />
<glyph unicode="&#xe9;" horiz-adv-x="542" d="M280 -10Q206 -10 152 17T67 95T37 212Q37 294 71 358T167 461T307 499Q368 499 409 478T474 422T506 341T509 249Q507 228 498 222T473 216H137L147 288H427L410 273Q416 313 407 344T374 395T306 414Q262 414 232
394T185 343T162 275L157 244Q145 171 181 128T291 85Q321 85 353 91T411 113Q430 124 444 123T467 112T478 89T474 61T451 35Q416 12 368 1T280 -10ZM377 559Q365 545 351 544T326 549T313 571T320 601L416 748Q428 767 444 772T474 772T498 755T508 728T495 696L377
559Z" />
<glyph unicode="&#xea;" horiz-adv-x="542" d="M280 -10Q206 -10 152 17T67 95T37 212Q37 294 71 358T167 461T307 499Q368 499 409 478T474 422T506 341T509 249Q507 228 498 222T473 216H137L147 288H427L410 273Q416 313 407 344T374 395T306 414Q262 414 232
394T185 343T162 275L157 244Q145 171 181 128T291 85Q321 85 353 91T411 113Q430 124 444 123T467 112T478 89T474 61T451 35Q416 12 368 1T280 -10ZM473 597Q481 580 475 567T457 548T431 544T409 562L342 686L247 560Q237 547 223 545T198 548T183 568T190 597L274
727Q288 750 306 762T348 774Q371 774 388 763T415 728L473 597Z" />
<glyph unicode="&#xeb;" horiz-adv-x="542" d="M280 -10Q206 -10 152 17T67 95T37 212Q37 294 71 358T167 461T307 499Q368 499 409 478T474 422T506 341T509 249Q507 228 498 222T473 216H137L147 288H427L410 273Q416 313 407 344T374 395T306 414Q262 414 232
394T185 343T162 275L157 244Q145 171 181 128T291 85Q321 85 353 91T411 113Q430 124 444 123T467 112T478 89T474 61T451 35Q416 12 368 1T280 -10ZM433 593Q408 593 394 605T380 641Q380 675 399 695T452 716Q478 716 491 704T505 668Q505 634 487 614T433 593ZM244
593Q218 593 204 605T190 641Q190 675 209 695T262 716Q288 716 302 704T316 668Q316 634 298 614T244 593Z" />
<glyph unicode="&#xec;" horiz-adv-x="255" d="M87 -8Q58 -8 45 11T36 65L95 435Q100 466 118 481T167 497Q196 497 209 478T218 424L159 54Q154 23 137 8T87 -8ZM127 564L36 695Q22 715 24 731T37 758T65 771T97 766T125 736L195 599Q204 582 199 569T182 548T154
544T127 564Z" />
<glyph unicode="&#xed;" horiz-adv-x="255" d="M87 -8Q58 -8 45 11T36 65L95 435Q100 466 118 481T167 497Q196 497 209 478T218 424L159 54Q154 23 137 8T87 -8ZM223 559Q211 545 197 544T172 549T159 571T166 601L262 748Q274 767 290 772T320 772T344 755T354
728T341 696L223 559Z" />
<glyph unicode="&#xee;" horiz-adv-x="255" d="M87 -8Q58 -8 45 11T36 65L95 435Q100 466 118 481T167 497Q196 497 209 478T218 424L159 54Q154 23 137 8T87 -8ZM319 597Q327 580 321 567T303 548T277 544T255 562L188 686L93 560Q83 547 69 545T44 548T29 568T36
597L120 727Q134 750 152 762T194 774Q217 774 234 763T261 728L319 597Z" />
<glyph unicode="&#xef;" horiz-adv-x="255" d="M87 -8Q58 -8 45 11T36 65L95 435Q100 466 118 481T167 497Q196 497 209 478T218 424L159 54Q154 23 137 8T87 -8ZM279 593Q254 593 240 605T226 641Q226 675 245 695T298 716Q324 716 337 704T351 668Q351 634 333
614T279 593ZM90 593Q64 593 50 605T36 641Q36 675 55 695T108 716Q134 716 148 704T162 668Q162 634 144 614T90 593Z" />
<glyph unicode="&#xf0;" horiz-adv-x="581" d="M262 -10Q197 -10 145 15T64 87T34 193Q34 269 67 327T157 417T286 450Q331 450 368 436T429 393T460 314L438 313Q444 396 413 463T324 575L342 572L202 511Q187 504 176 509T160 526T159 550T178 569L279 613L277
604Q264 612 247 618T213 630Q191 637 183 652T179 682T198 705T238 708Q279 698 315 683T381 648L362 650L491 707Q507 714 519 709T535 692T536 668T516 649L421 607L423 617Q468 578 496 530T537 428T550 317Q550 250 532 191T478 86T388 16T262 -10ZM273 87Q313
87 344 106T393 161T412 247Q412 298 382 327T299 356Q260 356 229 337T179 283T160 196Q160 145 190 116T273 87Z" />
<glyph unicode="&#xf1;" horiz-adv-x="585" d="M88 -7Q59 -7 46 12T37 66L95 435Q100 466 118 481T167 497Q195 497 208 480T216 429L206 365L202 390Q227 443 273 471T383 499Q437 499 473 477T525 410T530 293L493 55Q489 24 471 9T421 -7Q392 -7 378 12T369
66L405 291Q414 346 397 373T333 401Q274 401 239 364T193 263L160 55Q151 -7 88 -7ZM182 582Q167 583 160 593T156 619Q162 647 174 669T202 706T237 728T279 736Q304 736 322 726T355 703T385 680T419 670Q439 670 455 683T478 717Q482 730 492 736T516 742Q531
741 538 732T542 705Q534 668 516 642T474 602T419 588Q394 588 376 598T342 621T312 644T279 654Q260 654 243 641T220 607Q216 594 206 588T182 582Z" />
<glyph unicode="&#xf2;" horiz-adv-x="576" d="M267 -10Q195 -10 144 17T65 94T37 211Q37 277 58 330T116 421T203 479T309 499Q381 499 432 472T511 396T539 278Q539 212 518 159T460 68T373 10T267 -10ZM270 85Q316 85 347 111T396 182T413 282Q413 341 385
372T306 404Q261 404 229 378T180 308T163 207Q163 148 191 117T270 85ZM289 564L198 695Q184 715 186 731T199 758T227 771T259 766T287 736L357 599Q366 582 361 569T344 548T316 544T289 564Z" />
<glyph unicode="&#xf3;" horiz-adv-x="576" d="M267 -10Q195 -10 144 17T65 94T37 211Q37 277 58 330T116 421T203 479T309 499Q381 499 432 472T511 396T539 278Q539 212 518 159T460 68T373 10T267 -10ZM270 85Q316 85 347 111T396 182T413 282Q413 341 385
372T306 404Q261 404 229 378T180 308T163 207Q163 148 191 117T270 85ZM385 559Q373 545 359 544T334 549T321 571T328 601L424 748Q436 767 452 772T482 772T506 755T516 728T503 696L385 559Z" />
<glyph unicode="&#xf4;" horiz-adv-x="576" d="M267 -10Q195 -10 144 17T65 94T37 211Q37 277 58 330T116 421T203 479T309 499Q381 499 432 472T511 396T539 278Q539 212 518 159T460 68T373 10T267 -10ZM270 85Q316 85 347 111T396 182T413 282Q413 341 385
372T306 404Q261 404 229 378T180 308T163 207Q163 148 191 117T270 85ZM481 597Q489 580 483 567T465 548T439 544T417 562L350 686L255 560Q245 547 231 545T206 548T191 568T198 597L282 727Q296 750 314 762T356 774Q379 774 396 763T423 728L481 597Z" />
<glyph unicode="&#xf5;" horiz-adv-x="576" d="M267 -10Q195 -10 144 17T65 94T37 211Q37 277 58 330T116 421T203 479T309 499Q381 499 432 472T511 396T539 278Q539 212 518 159T460 68T373 10T267 -10ZM270 85Q316 85 347 111T396 182T413 282Q413 341 385
372T306 404Q261 404 229 378T180 308T163 207Q163 148 191 117T270 85ZM182 582Q167 583 160 593T156 619Q162 647 174 669T202 706T237 728T279 736Q304 736 322 726T355 703T385 680T419 670Q439 670 455 683T478 717Q482 730 492 736T516 742Q531 741 538 732T542
705Q534 668 516 642T474 602T419 588Q394 588 376 598T342 621T312 644T279 654Q260 654 243 641T220 607Q216 594 206 588T182 582Z" />
<glyph unicode="&#xf6;" horiz-adv-x="576" d="M267 -10Q195 -10 144 17T65 94T37 211Q37 277 58 330T116 421T203 479T309 499Q381 499 432 472T511 396T539 278Q539 212 518 159T460 68T373 10T267 -10ZM270 85Q316 85 347 111T396 182T413 282Q413 341 385
372T306 404Q261 404 229 378T180 308T163 207Q163 148 191 117T270 85ZM441 593Q416 593 402 605T388 641Q388 675 407 695T460 716Q486 716 499 704T513 668Q513 634 495 614T441 593ZM252 593Q226 593 212 605T198 641Q198 675 217 695T270 716Q296 716 310
704T324 668Q324 634 306 614T252 593Z" />
<glyph unicode="&#xf7;" horiz-adv-x="600" d="M101 243Q79 243 67 252T55 279Q55 303 68 317T107 331H512Q535 331 547 322T559 295Q559 271 546 257T507 243H101ZM261 33Q238 33 225 45T212 79Q212 108 230 127T279 147Q302 147 314 135T327 102Q327 72 310
53T261 33ZM323 427Q300 427 287 439T274 473Q274 502 292 521T341 541Q364 541 377 529T390 496Q390 466 373 447T323 427Z" />
<glyph unicode="&#xf8;" horiz-adv-x="576" d="M268 -10Q196 -10 145 17T66 95T38 212Q38 278 59 331T117 421T204 479T310 499Q382 499 433 472T512 396T540 278Q540 212 519 159T461 68T374 10T268 -10ZM273 78Q321 78 355 104T407 177T425 284Q425 346 394
378T304 411Q257 411 223 385T170 313T152 206Q152 143 183 111T273 78ZM131 -29Q121 -43 107 -44T82 -37T69 -14T77 15L448 517Q459 531 472 532T496 525T509 502T501 473L131 -29Z" />
<glyph unicode="&#xf9;" horiz-adv-x="579" d="M201 -10Q149 -10 112 12T60 80T55 197L94 439Q99 469 116 483T162 497Q193 497 207 480T217 428L181 198Q173 143 189 116T251 89Q307 89 342 126T387 227L420 439Q425 469 442 483T488 497Q520 497 534 479T543
427L484 51Q475 -8 416 -8Q387 -8 373 8T363 57L373 129L380 102Q354 47 308 19T201 -10ZM286 565L195 696Q181 716 183 732T196 759T224 772T256 767T284 737L354 600Q363 583 358 570T341 549T313 545T286 565Z" />
<glyph unicode="&#xfa;" horiz-adv-x="579" d="M201 -10Q149 -10 112 12T60 80T55 197L94 439Q99 469 116 483T162 497Q193 497 207 480T217 428L181 198Q173 143 189 116T251 89Q307 89 342 126T387 227L420 439Q425 469 442 483T488 497Q520 497 534 479T543
427L484 51Q475 -8 416 -8Q387 -8 373 8T363 57L373 129L380 102Q354 47 308 19T201 -10ZM382 560Q370 546 356 545T331 550T318 572T325 602L421 749Q433 768 449 773T479 773T503 756T513 729T500 697L382 560Z" />
<glyph unicode="&#xfb;" horiz-adv-x="579" d="M201 -10Q149 -10 112 12T60 80T55 197L94 439Q99 469 116 483T162 497Q193 497 207 480T217 428L181 198Q173 143 189 116T251 89Q307 89 342 126T387 227L420 439Q425 469 442 483T488 497Q520 497 534 479T543
427L484 51Q475 -8 416 -8Q387 -8 373 8T363 57L373 129L380 102Q354 47 308 19T201 -10ZM478 598Q486 581 480 568T462 549T436 545T414 563L347 687L252 561Q242 548 228 546T203 549T188 569T195 598L279 728Q293 751 311 763T353 775Q376 775 393 764T420 729L478
598Z" />
<glyph unicode="&#xfc;" horiz-adv-x="579" d="M201 -10Q149 -10 112 12T60 80T55 197L94 439Q99 469 116 483T162 497Q193 497 207 480T217 428L181 198Q173 143 189 116T251 89Q307 89 342 126T387 227L420 439Q425 469 442 483T488 497Q520 497 534 479T543
427L484 51Q475 -8 416 -8Q387 -8 373 8T363 57L373 129L380 102Q354 47 308 19T201 -10ZM438 594Q413 594 399 606T385 642Q385 676 404 696T457 717Q483 717 496 705T510 669Q510 635 492 615T438 594ZM249 594Q223 594 209 606T195 642Q195 676 214 696T267
717Q293 717 307 705T321 669Q321 635 303 615T249 594Z" />
<glyph unicode="&#xfd;" horiz-adv-x="526" d="M124 -188Q100 -188 87 -177T73 -149T84 -111L179 45L171 -7L56 411Q49 436 54 455T74 486T113 497Q139 497 152 485T173 440L253 109H222L418 452Q432 476 447 486T486 497Q510 497 523 486T538 458T528 419L192
-143Q178 -167 163 -177T124 -188ZM345 559Q333 545 319 544T294 549T281 571T288 601L384 748Q396 767 412 772T442 772T466 755T476 728T463 696L345 559Z" />
<glyph unicode="&#xfe;" horiz-adv-x="600" d="M60 -188Q31 -188 17 -169T8 -116L129 649Q134 681 152 697T201 713Q230 713 244 696T253 643L210 368L205 398Q233 447 277 473T379 499Q435 499 476 474T541 401T564 288Q564 205 535 138T450 30T318 -10Q262 -10
219 17T158 97H167L131 -129Q126 -160 109 -174T60 -188ZM295 85Q341 85 372 111T421 182T438 282Q438 341 410 372T331 404Q286 404 254 378T205 308T188 207Q188 148 216 117T295 85Z" />
<glyph unicode="&#xff;" horiz-adv-x="526" d="M124 -188Q100 -188 87 -177T73 -149T84 -111L179 45L171 -7L56 411Q49 436 54 455T74 486T113 497Q139 497 152 485T173 440L253 109H222L418 452Q432 476 447 486T486 497Q510 497 523 486T538 458T528 419L192
-143Q178 -167 163 -177T124 -188ZM401 593Q376 593 362 605T348 641Q348 675 367 695T420 716Q446 716 459 704T473 668Q473 634 455 614T401 593ZM212 593Q186 593 172 605T158 641Q158 675 177 695T230 716Q256 716 270 704T284 668Q284 634 266 614T212 593Z"
/>
<glyph unicode="&#x2013;" horiz-adv-x="500" d="M38 230Q16 230 6 239T-4 262Q-4 280 9 292T42 305H469Q492 305 502 296T512 273Q512 254 498 242T466 230H38Z" />
<glyph unicode="&#x2014;" horiz-adv-x="1000" d="M37 230Q15 230 5 239T-5 262Q-5 280 8 292T41 305H969Q992 305 1002 296T1012 273Q1012 254 998 242T966 230H37Z" />
<glyph unicode="&#x2018;" horiz-adv-x="248" d="M174 689Q189 703 204 703T228 695T238 672T223 644Q198 619 187 599T170 552L162 585Q197 585 218 565T240 511Q240 479 221 459T166 438Q132 438 114 460T95 518Q95 551 103 580T129 637T174 689Z" />
<glyph unicode="&#x2019;" horiz-adv-x="248" d="M178 458Q163 444 149 444T125 452T115 475T130 503Q156 528 167 549T183 595L190 562Q155 562 134 582T112 636Q112 669 132 689T186 710Q221 710 239 688T258 629Q258 596 250 567T223 511T178 458Z" />
<glyph unicode="&#x201a;" horiz-adv-x="248" d="M89 -109Q74 -123 59 -123T35 -115T25 -92T40 -64Q66 -39 77 -18T93 29L101 -5Q66 -5 45 15T23 70Q23 102 43 122T97 143Q132 143 150 121T168 63Q168 30 160 1T134 -56T89 -109Z" />
<glyph unicode="&#x201c;" horiz-adv-x="443" d="M174 689Q189 703 204 703T228 695T238 672T223 644Q198 619 187 599T170 552L162 585Q197 585 218 565T240 511Q240 479 221 459T166 438Q132 438 114 460T95 518Q95 551 103 580T129 637T174 689ZM369 689Q384
703 399 703T423 695T433 672T418 644Q393 619 382 599T365 552L357 585Q392 585 413 565T435 511Q435 479 416 459T361 438Q327 438 309 460T290 518Q290 551 298 580T324 637T369 689Z" />
<glyph unicode="&#x201d;" horiz-adv-x="443" d="M178 458Q163 444 149 444T125 452T115 475T130 503Q156 528 167 549T183 595L190 562Q155 562 134 582T112 636Q112 669 132 689T186 710Q221 710 239 688T258 629Q258 596 250 567T223 511T178 458ZM373 458Q358
444 344 444T320 452T310 475T325 503Q351 528 362 549T378 595L385 562Q350 562 329 582T307 636Q307 669 327 689T381 710Q416 710 434 688T453 629Q453 596 445 567T418 511T373 458Z" />
<glyph unicode="&#x201e;" horiz-adv-x="443" d="M89 -109Q74 -123 59 -123T35 -115T25 -92T40 -64Q66 -39 77 -18T93 29L101 -5Q66 -5 45 15T23 70Q23 102 43 122T97 143Q132 143 150 121T168 63Q168 30 160 1T134 -56T89 -109ZM284 -109Q269 -123 254 -123T230
-115T220 -92T235 -64Q261 -39 272 -18T288 29L296 -5Q261 -5 240 15T218 70Q218 102 238 122T292 143Q327 143 345 121T363 63Q363 30 355 1T329 -56T284 -109Z" />
<glyph unicode="&#x2022;" horiz-adv-x="524" d="M265 88Q216 88 175 111T109 175T84 265Q84 311 107 351T172 417T265 443Q313 443 354 420T421 357T446 265Q446 216 422 176T356 112T265 88Z" />
<glyph unicode="&#x2039;" horiz-adv-x="287" d="M180 87Q157 77 138 85T109 115L61 224Q53 244 55 265T73 307L174 434Q186 449 203 452T237 448Q256 438 258 418T241 369L166 261L202 148Q209 126 204 111T180 87Z" />
<glyph unicode="&#x203a;" horiz-adv-x="287" d="M57 85Q38 95 36 115T53 164L128 272L92 385Q85 407 90 423T114 446Q137 456 156 448T185 418L233 309Q241 290 239 268T221 226L120 99Q108 84 91 81T57 85Z" />
</font>
</defs>
</svg>
